<?xml version="1.0" standalone="no"?>
<!DOCTYPE svg PUBLIC "-//W3C//DTD SVG 1.1//EN" "http://www.w3.org/Graphics/SVG/1.1/DTD/svg11.dtd" >
<svg xmlns="http://www.w3.org/2000/svg">
<metadata>Generated by IcoMoon</metadata>
<defs>
<font id="icomoon" horiz-adv-x="1024">
<font-face units-per-em="1024" ascent="960" descent="-64" />
<missing-glyph horiz-adv-x="1024" />
<glyph unicode="&#x20;" horiz-adv-x="512" d="" />
<glyph unicode="&#xe900;" glyph-name="add-outline" d="M563.2 512h204.8v-102.4h-204.8v-204.8h-102.4v204.8h-204.8v102.4h204.8v204.8h102.4v-204.8zM512-51.2c-282.77 0-512 229.23-512 512s229.23 512 512 512v0c282.77 0 512-229.23 512-512s-229.23-512-512-512v0zM512 51.2c226.216 0 409.6 183.384 409.6 409.6s-183.384 409.6-409.6 409.6v0c-226.216 0-409.6-183.384-409.6-409.6s183.384-409.6 409.6-409.6v0z" />
<glyph unicode="&#xe901;" glyph-name="add-solid" d="M563.2 512v204.8h-102.4v-204.8h-204.8v-102.4h204.8v-204.8h102.4v204.8h204.8v102.4h-204.8zM512-51.2c-282.77 0-512 229.23-512 512s229.23 512 512 512v0c282.77 0 512-229.23 512-512s-229.23-512-512-512v0z" />
<glyph unicode="&#xe902;" glyph-name="adjust" d="M512 870.4v-819.2c226.216 0 409.6 183.384 409.6 409.6s-183.384 409.6-409.6 409.6v0zM512-51.2c-282.77 0-512 229.23-512 512s229.23 512 512 512v0c282.77 0 512-229.23 512-512s-229.23-512-512-512v0z" />
<glyph unicode="&#xe903;" glyph-name="airplane" d="M430.080 358.4h-286.72l-92.16-153.6h-51.2v512h51.2l92.16-153.6h286.72l-122.88 409.6h102.4l245.76-409.6h266.24c56.554 0 102.4-45.846 102.4-102.4s-45.846-102.4-102.4-102.4v0h-266.24l-245.76-409.6h-102.4l122.88 409.6z" />
<glyph unicode="&#xe904;" glyph-name="album" d="M0 972.8h1024v-1024h-1024v1024zM512 51.2c226.216 0 409.6 183.384 409.6 409.6s-183.384 409.6-409.6 409.6v0c-226.216 0-409.6-183.384-409.6-409.6s183.384-409.6 409.6-409.6v0zM512 307.2c-84.831 0-153.6 68.769-153.6 153.6s68.769 153.6 153.6 153.6v0c84.831 0 153.6-68.769 153.6-153.6s-68.769-153.6-153.6-153.6v0z" />
<glyph unicode="&#xe905;" glyph-name="align-center" d="M51.2 921.6h921.6v-102.4h-921.6v102.4zM51.2 512h921.6v-102.4h-921.6v102.4zM51.2 102.4h921.6v-102.4h-921.6v102.4zM204.8 716.8h614.4v-102.4h-614.4v102.4zM204.8 307.2h614.4v-102.4h-614.4v102.4z" />
<glyph unicode="&#xe906;" glyph-name="align-justified" d="M51.2 921.6h921.6v-102.4h-921.6v102.4zM51.2 512h921.6v-102.4h-921.6v102.4zM51.2 102.4h921.6v-102.4h-921.6v102.4zM51.2 716.8h921.6v-102.4h-921.6v102.4zM51.2 307.2h921.6v-102.4h-921.6v102.4z" />
<glyph unicode="&#xe907;" glyph-name="align-left" d="M51.2 921.6h921.6v-102.4h-921.6v102.4zM51.2 512h921.6v-102.4h-921.6v102.4zM51.2 102.4h921.6v-102.4h-921.6v102.4zM51.2 716.8h614.4v-102.4h-614.4v102.4zM51.2 307.2h614.4v-102.4h-614.4v102.4z" />
<glyph unicode="&#xe908;" glyph-name="align-right" d="M51.2 921.6h921.6v-102.4h-921.6v102.4zM51.2 512h921.6v-102.4h-921.6v102.4zM51.2 102.4h921.6v-102.4h-921.6v102.4zM358.4 716.8h614.4v-102.4h-614.4v102.4zM358.4 307.2h614.4v-102.4h-614.4v102.4z" />
<glyph unicode="&#xe909;" glyph-name="anchor" d="M222.208 171.008c62.276-62.413 144.637-104.761 236.562-116.524l2.030-0.212v406.528h-204.8v102.4h204.8v111.104c-60.168 21.723-102.4 78.337-102.4 144.815 0 84.831 68.769 153.6 153.6 153.6s153.6-68.769 153.6-153.6c0-66.478-42.232-123.092-101.33-144.477l-1.070-0.338v-111.104h204.8v-102.4h-204.8v-406.528c93.955 11.975 176.316 54.323 238.585 116.729l0.007 0.007-72.704 72.704h289.792l-144.896-144.896c-92.649-92.621-220.626-149.907-361.984-149.907s-269.336 57.286-361.986 149.908l-144.894 144.894h289.792l-72.704-72.704zM512 768c28.277 0 51.2 22.923 51.2 51.2s-22.923 51.2-51.2 51.2v0c-28.277 0-51.2-22.923-51.2-51.2s22.923-51.2 51.2-51.2v0z" />
<glyph unicode="&#xe90a;" glyph-name="announcement" d="M153.6 665.6c0 56.32 46.080 102.4 102.4 102.4h409.6l204.8 204.8h102.4v-819.2h-102.4l-204.8 204.8h-409.6c-56.554 0-102.4 45.846-102.4 102.4v0h-102.4v204.8h102.4zM563.2 204.8v-256h-153.6l-85.504 256h-68.096v102.4h409.6v-102.4h-102.4z" />
<glyph unicode="&#xe90b;" glyph-name="apparel" d="M358.4 972.8h-51.2l-307.2-153.6v-307.2l204.8 51.2v-614.4h614.4v614.4l204.8-51.2v307.2l-307.2 153.6h-51.2c0-84.831-68.769-153.6-153.6-153.6s-153.6 68.769-153.6 153.6v0z" />
<glyph unicode="&#xe90c;" glyph-name="arrow-down" d="M460.8 144.794l-310.835 310.835-72.397-72.397 434.432-434.432 434.432 434.432-72.397 72.397-310.835-310.835v828.006h-102.4z" />
<glyph unicode="&#xe90d;" glyph-name="arrow-left" d="M195.994 512l310.835 310.835-72.397 72.397-434.432-434.432 434.432-434.432 72.397 72.397-310.835 310.835h828.006v102.4h-828.006z" />
<glyph unicode="&#xe90e;" glyph-name="arrow-outline-down" d="M512-51.2c-282.77 0-512 229.23-512 512s229.23 512 512 512v0c282.77 0 512-229.23 512-512s-229.23-512-512-512v0zM512 51.2c226.216 0 409.6 183.384 409.6 409.6s-183.384 409.6-409.6 409.6v0c-226.216 0-409.6-183.384-409.6-409.6s183.384-409.6 409.6-409.6v0zM409.6 460.8v256h204.8v-256h153.6l-256-256-256 256h153.6z" />
<glyph unicode="&#xe90f;" glyph-name="arrow-outline-left" d="M0 460.8c0 282.77 229.23 512 512 512s512-229.23 512-512v0c0-282.77-229.23-512-512-512s-512 229.23-512 512v0zM102.4 460.8c0-226.216 183.384-409.6 409.6-409.6s409.6 183.384 409.6 409.6v0c0 226.216-183.384 409.6-409.6 409.6s-409.6-183.384-409.6-409.6v0zM512 563.2h256v-204.8h-256v-153.6l-256 256 256 256v-153.6z" />
<glyph unicode="&#xe910;" glyph-name="arrow-outline-right" d="M1024 460.8c0-282.77-229.23-512-512-512s-512 229.23-512 512v0c0 282.77 229.23 512 512 512s512-229.23 512-512v0zM921.6 460.8c0 226.216-183.384 409.6-409.6 409.6s-409.6-183.384-409.6-409.6v0c0-226.216 183.384-409.6 409.6-409.6s409.6 183.384 409.6 409.6v0zM512 358.4h-256v204.8h256v153.6l256-256-256-256v153.6z" />
<glyph unicode="&#xe911;" glyph-name="arrow-outline-up" d="M512 972.8c282.77 0 512-229.23 512-512s-229.23-512-512-512v0c-282.77 0-512 229.23-512 512s229.23 512 512 512v0zM512 870.4c-226.216 0-409.6-183.384-409.6-409.6s183.384-409.6 409.6-409.6v0c226.216 0 409.6 183.384 409.6 409.6s-183.384 409.6-409.6 409.6v0zM614.4 460.8v-256h-204.8v256h-153.6l256 256 256-256h-153.6z" />
<glyph unicode="&#xe912;" glyph-name="arrow-right" d="M828.006 512l-310.835 310.835 72.397 72.397 434.432-434.432-434.432-434.432-72.397 72.397 310.835 310.835h-828.006v102.4z" />
<glyph unicode="&#xe913;" glyph-name="arrow-thick-down" d="M358.4 460.8v409.6h307.2v-409.6h256l-409.6-409.6-409.6 409.6h256z" />
<glyph unicode="&#xe914;" glyph-name="arrow-thick-left" d="M512 307.2h409.6v307.2h-409.6v256l-409.6-409.6 409.6-409.6v256z" />
<glyph unicode="&#xe915;" glyph-name="arrow-thick-right" d="M512 614.4h-409.6v-307.2h409.6v-256l409.6 409.6-409.6 409.6v-256z" />
<glyph unicode="&#xe916;" glyph-name="arrow-thick-up" d="M358.4 460.8v-409.6h307.2v409.6h256l-409.6 409.6-409.6-409.6h256z" />
<glyph unicode="&#xe917;" glyph-name="arrow-thin-down" d="M460.8 144.794l-310.835 310.835-72.397-72.397 434.432-434.432 434.432 434.432-72.397 72.397-310.835-310.835v828.006h-102.4z" />
<glyph unicode="&#xe918;" glyph-name="arrow-thin-left" d="M195.994 512l310.835 310.835-72.397 72.397-434.432-434.432 434.432-434.432 72.397 72.397-310.835 310.835h828.006v102.4h-828.006z" />
<glyph unicode="&#xe919;" glyph-name="arrow-thin-right" d="M828.006 512l-310.835 310.835 72.397 72.397 434.432-434.432-434.432-434.432-72.397 72.397 310.835 310.835h-828.006v102.4z" />
<glyph unicode="&#xe91a;" glyph-name="arrow-thin-up" d="M460.8 776.806l-310.835-310.835-72.397 72.397 434.432 434.432 434.432-434.432-72.397-72.397-310.835 310.835v-828.006h-102.4v828.006z" />
<glyph unicode="&#xe91b;" glyph-name="arrow-up" d="M460.8 776.806l-310.835-310.835-72.397 72.397 434.432 434.432 434.432-434.432-72.397-72.397-310.835 310.835v-828.006h-102.4v828.006z" />
<glyph unicode="&#xe91c;" glyph-name="artist" d="M806.4 563.2l-191.488 192c-0.314 4.244-0.493 9.193-0.493 14.184 0 112.825 91.463 204.288 204.288 204.288 56.879 0 108.329-23.246 145.368-60.755l0.021-0.021c37.373-37.113 60.506-88.522 60.506-145.335 0-113.108-91.692-204.8-204.8-204.8-4.715 0-9.394 0.159-14.030 0.473l0.628-0.034zM94.72 189.44l471.040 470.528 144.896-144.896-471.040-471.040-144.384 145.408zM23.040 44.544l108.032 108.544 72.704-72.704-108.544-108.544-72.704 72.704zM512 204.8l102.4 102.4v-358.4h-102.4v256z" />
<glyph unicode="&#xe91d;" glyph-name="at-symbol" d="M696.32 283.136c-46.612-48.782-112.182-79.108-184.835-79.108-141.102 0-255.488 114.386-255.488 255.488 0 0.451 0.001 0.902 0.004 1.353v-0.070c0 141.385 114.615 256 256 256 57.921 0 111.348-19.235 154.244-51.667l-0.644 0.467v51.2h102.4v-332.8c0-42.415 34.385-76.8 76.8-76.8s76.8 34.385 76.8 76.8v0 76.8c-0.167 226.090-183.487 409.307-409.6 409.307-226.216 0-409.6-183.384-409.6-409.6s183.384-409.6 409.6-409.6c66.818 0 129.898 15.999 185.62 44.376l-2.325-1.074 46.080-91.648c-66.813-34.208-145.753-54.255-229.376-54.255-282.77 0-512 229.23-512 512s229.23 512 512 512c282.596 0 511.718-228.948 512-511.478v-0.027h-0.512v-76.8c0.001-0.159 0.001-0.346 0.001-0.534 0-98.969-80.231-179.2-179.2-179.2-61.529 0-115.815 31.010-148.083 78.253l-0.398 0.617zM512 307.2c84.831 0 153.6 68.769 153.6 153.6s-68.769 153.6-153.6 153.6v0c-84.831 0-153.6-68.769-153.6-153.6s68.769-153.6 153.6-153.6v0z" />
<glyph unicode="&#xe91e;" glyph-name="attachment" d="M768 819.2h-409.6c-197.939 0-358.4-160.461-358.4-358.4s160.461-358.4 358.4-358.4v0h409.6v102.4h-409.6c-141.385 0-256 114.615-256 256s114.615 256 256 256v0h409.6c84.831 0 153.6-68.769 153.6-153.6s-68.769-153.6-153.6-153.6v0h-409.6c-28.277 0-51.2 22.923-51.2 51.2s22.923 51.2 51.2 51.2v0h409.6v102.4h-409.6c-84.831 0-153.6-68.769-153.6-153.6s68.769-153.6 153.6-153.6v0h409.6c141.385 0 256 114.615 256 256s-114.615 256-256 256v0z" />
<glyph unicode="&#xe91f;" glyph-name="backspace" d="M0 460.8l358.4 358.4h665.6v-716.8h-665.6l-358.4 358.4zM737.792 460.8l109.056 108.544-72.704 72.704-108.544-109.568-108.544 109.056-72.704-72.704 109.568-108.032-109.056-108.544 72.704-72.704 108.032 109.568 108.544-109.056 72.704 72.704-109.568 108.032z" />
<glyph unicode="&#xe920;" glyph-name="backward" d="M972.8 716.8v-512l-460.8 256 460.8 256zM512 716.8v-512l-460.8 256 460.8 256z" />
<glyph unicode="&#xe921;" glyph-name="backward-step" d="M204.8 716.8h153.6v-512h-153.6v512zM819.2 716.8v-512l-460.8 256 460.8 256z" />
<glyph unicode="&#xe922;" glyph-name="badge" d="M512 358.4c-169.662 0-307.2 137.538-307.2 307.2s137.538 307.2 307.2 307.2v0c169.662 0 307.2-137.538 307.2-307.2s-137.538-307.2-307.2-307.2v0zM512 512c84.831 0 153.6 68.769 153.6 153.6s-68.769 153.6-153.6 153.6v0c-84.831 0-153.6-68.769-153.6-153.6s68.769-153.6 153.6-153.6v0zM716.8 371.2v-422.4l-204.8 204.8-204.8-204.8v422.4c57.063-40.423 128.106-64.616 204.8-64.616s147.737 24.193 205.915 65.365l-1.115-0.749z" />
<glyph unicode="&#xe923;" glyph-name="battery-full" d="M0 665.6c0 56.32 46.080 102.4 102.4 102.4h819.2c56.554 0 102.4-45.846 102.4-102.4v0-409.6c0-56.554-45.846-102.4-102.4-102.4v0h-819.2c-56.554 0-102.4 45.846-102.4 102.4v0 409.6zM102.4 665.6v-409.6h819.2v409.6h-819.2zM153.6 614.4h204.8v-307.2h-204.8v307.2zM409.6 614.4h204.8v-307.2h-204.8v307.2zM665.6 614.4h204.8v-307.2h-204.8v307.2z" />
<glyph unicode="&#xe924;" glyph-name="battery-half" d="M0 665.6c0 56.32 46.080 102.4 102.4 102.4h819.2c56.554 0 102.4-45.846 102.4-102.4v0-409.6c0-56.554-45.846-102.4-102.4-102.4v0h-819.2c-56.554 0-102.4 45.846-102.4 102.4v0 409.6zM102.4 665.6v-409.6h819.2v409.6h-819.2zM153.6 614.4h204.8v-307.2h-204.8v307.2zM409.6 614.4h204.8v-307.2h-204.8v307.2z" />
<glyph unicode="&#xe925;" glyph-name="battery-low" d="M0 665.6c0 56.32 46.080 102.4 102.4 102.4h819.2c56.554 0 102.4-45.846 102.4-102.4v0-409.6c0-56.554-45.846-102.4-102.4-102.4v0h-819.2c-56.554 0-102.4 45.846-102.4 102.4v0 409.6zM102.4 665.6v-409.6h819.2v409.6h-819.2zM153.6 614.4h204.8v-307.2h-204.8v307.2z" />
<glyph unicode="&#xe926;" glyph-name="beverage" d="M460.8 51.2v358.4l-460.8 460.8v102.4h1024v-102.4l-460.8-460.8v-358.4l256-51.2v-51.2h-614.4v51.2l256 51.2zM563.2 563.2c56.554 0 102.4 45.846 102.4 102.4s-45.846 102.4-102.4 102.4v0c-56.554 0-102.4-45.846-102.4-102.4s45.846-102.4 102.4-102.4v0z" />
<glyph unicode="&#xe927;" glyph-name="block" d="M0 460.8c0 282.77 229.23 512 512 512s512-229.23 512-512v0c0-282.77-229.23-512-512-512s-512 229.23-512 512v0zM835.584 711.68l-574.976-573.952c68.628-53.726 156.18-86.154 251.306-86.154 226.216 0 409.6 183.384 409.6 409.6 0 94.998-32.34 182.442-86.612 251.924l0.682-0.906zM763.392 784.384c-68.81 54.208-156.742 86.945-252.321 86.945-226.216 0-409.6-183.384-409.6-409.6 0-95.578 32.737-183.511 87.609-253.196l-0.664 0.875 574.976 574.976z" />
<glyph unicode="&#xe928;" glyph-name="bluetooth" d="M481.792 972.8l307.2-307.2-204.8-204.8 204.8-204.8-307.2-307.2h-20.992v388.608l-168.96-168.96-71.68 72.704 219.136 219.648-220.16 220.16 72.704 71.68 168.96-167.936v388.096h20.992zM563.2 747.008v-163.328l81.408 81.92-81.408 81.408zM644.608 256l-81.408 81.408v-162.816l81.408 81.408z" />
<glyph unicode="&#xe929;" glyph-name="bolt" d="M665.6 563.2v409.6l-512-614.4h204.8v-409.6l512 614.4h-204.8z" />
<glyph unicode="&#xe92a;" glyph-name="book-reference" d="M307.2 768h-51.2c-28.277 0-51.2 22.923-51.2 51.2s22.923 51.2 51.2 51.2v0h563.2v51.2c0 28.277-22.923 51.2-51.2 51.2v0h-563.2c-56.554 0-102.4-45.846-102.4-102.4v0-819.2c0-56.32 46.080-102.4 102.4-102.4h614.4c56.554 0 102.4 45.846 102.4 102.4v0 665.6c0 28.277-22.923 51.2-51.2 51.2v0h-358.4v-409.6l-102.4 102.4-102.4-102.4v409.6z" />
<glyph unicode="&#xe92b;" glyph-name="bookmark" d="M102.4 870.4c0 56.32 46.080 102.4 102.4 102.4h614.4c56.554 0 102.4-45.846 102.4-102.4v0-921.6l-409.6 204.8-409.6-204.8v921.6z" />
<glyph unicode="&#xe92c;" glyph-name="bookmarkcopy2" d="M921.6 358.4v-51.2h-512v-256l-307.2 307.2 307.2 307.2v-256h409.6v460.8h102.4z" />
<glyph unicode="&#xe92d;" glyph-name="bookmarkcopy3" d="M179.2 307.2h435.2v-256l307.2 307.2-307.2 307.2v-256h-409.6v460.8h-102.4v-563.2z" />
<glyph unicode="&#xe92e;" glyph-name="bookmark-outline" d="M102.4 870.4c0 56.32 46.080 102.4 102.4 102.4h614.4c56.554 0 102.4-45.846 102.4-102.4v0-921.6l-409.6 204.8-409.6-204.8v921.6zM204.8 870.4v-768l307.2 153.6 307.2-153.6v768h-614.4z" />
<glyph unicode="&#xe92f;" glyph-name="bookmark-outline-add" d="M102.4 870.4c0 56.32 46.080 102.4 102.4 102.4h614.4c56.554 0 102.4-45.846 102.4-102.4v0-921.6l-409.6 204.8-409.6-204.8v921.6zM204.8 870.4v-768l307.2 153.6 307.2-153.6v768h-614.4zM460.8 614.4v102.4h102.4v-102.4h102.4v-102.4h-102.4v-102.4h-102.4v102.4h-102.4v102.4h102.4z" />
<glyph unicode="&#xe930;" glyph-name="border-all" d="M563.2 409.6v-307.2h307.2v307.2h-307.2zM563.2 512h307.2v307.2h-307.2v-307.2zM460.8 409.6h-307.2v-307.2h307.2v307.2zM460.8 512v307.2h-307.2v-307.2h307.2zM51.2 51.2v870.4h921.6v-921.6h-921.6v51.2z" />
<glyph unicode="&#xe931;" glyph-name="border-bottom" d="M51.2 921.6h102.4v-102.4h-102.4v102.4zM51.2 716.8h102.4v-102.4h-102.4v102.4zM51.2 512h102.4v-102.4h-102.4v102.4zM51.2 307.2h102.4v-102.4h-102.4v102.4zM51.2 102.4h921.6v-102.4h-921.6v102.4zM256 921.6h102.4v-102.4h-102.4v102.4zM256 512h102.4v-102.4h-102.4v102.4zM460.8 921.6h102.4v-102.4h-102.4v102.4zM460.8 716.8h102.4v-102.4h-102.4v102.4zM460.8 512h102.4v-102.4h-102.4v102.4zM460.8 307.2h102.4v-102.4h-102.4v102.4zM665.6 921.6h102.4v-102.4h-102.4v102.4zM665.6 512h102.4v-102.4h-102.4v102.4zM870.4 921.6h102.4v-102.4h-102.4v102.4zM870.4 716.8h102.4v-102.4h-102.4v102.4zM870.4 512h102.4v-102.4h-102.4v102.4zM870.4 307.2h102.4v-102.4h-102.4v102.4z" />
<glyph unicode="&#xe932;" glyph-name="border-horizontal" d="M51.2 921.6h102.4v-102.4h-102.4v102.4zM51.2 716.8h102.4v-102.4h-102.4v102.4zM51.2 512h921.6v-102.4h-921.6v102.4zM51.2 307.2h102.4v-102.4h-102.4v102.4zM51.2 102.4h102.4v-102.4h-102.4v102.4zM256 921.6h102.4v-102.4h-102.4v102.4zM256 102.4h102.4v-102.4h-102.4v102.4zM460.8 921.6h102.4v-102.4h-102.4v102.4zM460.8 716.8h102.4v-102.4h-102.4v102.4zM460.8 307.2h102.4v-102.4h-102.4v102.4zM460.8 102.4h102.4v-102.4h-102.4v102.4zM665.6 921.6h102.4v-102.4h-102.4v102.4zM665.6 102.4h102.4v-102.4h-102.4v102.4zM870.4 921.6h102.4v-102.4h-102.4v102.4zM870.4 716.8h102.4v-102.4h-102.4v102.4zM870.4 307.2h102.4v-102.4h-102.4v102.4zM870.4 102.4h102.4v-102.4h-102.4v102.4z" />
<glyph unicode="&#xe933;" glyph-name="border-inner" d="M460.8 512v409.6h102.4v-409.6h409.6v-102.4h-409.6v-409.6h-102.4v409.6h-409.6v102.4h409.6zM51.2 921.6h102.4v-102.4h-102.4v102.4zM51.2 716.8h102.4v-102.4h-102.4v102.4zM51.2 307.2h102.4v-102.4h-102.4v102.4zM51.2 102.4h102.4v-102.4h-102.4v102.4zM256 921.6h102.4v-102.4h-102.4v102.4zM256 102.4h102.4v-102.4h-102.4v102.4zM665.6 921.6h102.4v-102.4h-102.4v102.4zM665.6 102.4h102.4v-102.4h-102.4v102.4zM870.4 921.6h102.4v-102.4h-102.4v102.4zM870.4 716.8h102.4v-102.4h-102.4v102.4zM870.4 307.2h102.4v-102.4h-102.4v102.4zM870.4 102.4h102.4v-102.4h-102.4v102.4z" />
<glyph unicode="&#xe934;" glyph-name="border-left" d="M51.2 921.6h102.4v-921.6h-102.4v921.6zM256 921.6h102.4v-102.4h-102.4v102.4zM256 512h102.4v-102.4h-102.4v102.4zM256 102.4h102.4v-102.4h-102.4v102.4zM460.8 921.6h102.4v-102.4h-102.4v102.4zM460.8 716.8h102.4v-102.4h-102.4v102.4zM460.8 512h102.4v-102.4h-102.4v102.4zM460.8 307.2h102.4v-102.4h-102.4v102.4zM460.8 102.4h102.4v-102.4h-102.4v102.4zM665.6 921.6h102.4v-102.4h-102.4v102.4zM665.6 512h102.4v-102.4h-102.4v102.4zM665.6 102.4h102.4v-102.4h-102.4v102.4zM870.4 921.6h102.4v-102.4h-102.4v102.4zM870.4 716.8h102.4v-102.4h-102.4v102.4zM870.4 512h102.4v-102.4h-102.4v102.4zM870.4 307.2h102.4v-102.4h-102.4v102.4zM870.4 102.4h102.4v-102.4h-102.4v102.4z" />
<glyph unicode="&#xe935;" glyph-name="border-none" d="M51.2 921.6h102.4v-102.4h-102.4v102.4zM51.2 716.8h102.4v-102.4h-102.4v102.4zM51.2 512h102.4v-102.4h-102.4v102.4zM51.2 307.2h102.4v-102.4h-102.4v102.4zM51.2 102.4h102.4v-102.4h-102.4v102.4zM256 921.6h102.4v-102.4h-102.4v102.4zM256 512h102.4v-102.4h-102.4v102.4zM256 102.4h102.4v-102.4h-102.4v102.4zM460.8 921.6h102.4v-102.4h-102.4v102.4zM460.8 716.8h102.4v-102.4h-102.4v102.4zM460.8 512h102.4v-102.4h-102.4v102.4zM460.8 307.2h102.4v-102.4h-102.4v102.4zM460.8 102.4h102.4v-102.4h-102.4v102.4zM665.6 921.6h102.4v-102.4h-102.4v102.4zM665.6 512h102.4v-102.4h-102.4v102.4zM665.6 102.4h102.4v-102.4h-102.4v102.4zM870.4 921.6h102.4v-102.4h-102.4v102.4zM870.4 716.8h102.4v-102.4h-102.4v102.4zM870.4 512h102.4v-102.4h-102.4v102.4zM870.4 307.2h102.4v-102.4h-102.4v102.4zM870.4 102.4h102.4v-102.4h-102.4v102.4z" />
<glyph unicode="&#xe936;" glyph-name="border-outer" d="M102.4 0h-51.2v921.6h921.6v-921.6h-870.4zM153.6 102.4h716.8v716.8h-716.8v-716.8zM665.6 512h102.4v-102.4h-102.4v102.4zM460.8 512h102.4v-102.4h-102.4v102.4zM256 512h102.4v-102.4h-102.4v102.4zM460.8 716.8h102.4v-102.4h-102.4v102.4zM460.8 307.2h102.4v-102.4h-102.4v102.4z" />
<glyph unicode="&#xe937;" glyph-name="border-right" d="M256 921.6h102.4v-102.4h-102.4v102.4zM256 512h102.4v-102.4h-102.4v102.4zM256 102.4h102.4v-102.4h-102.4v102.4zM460.8 921.6h102.4v-102.4h-102.4v102.4zM460.8 716.8h102.4v-102.4h-102.4v102.4zM460.8 512h102.4v-102.4h-102.4v102.4zM460.8 307.2h102.4v-102.4h-102.4v102.4zM460.8 102.4h102.4v-102.4h-102.4v102.4zM665.6 921.6h102.4v-102.4h-102.4v102.4zM665.6 512h102.4v-102.4h-102.4v102.4zM665.6 102.4h102.4v-102.4h-102.4v102.4zM51.2 921.6h102.4v-102.4h-102.4v102.4zM51.2 716.8h102.4v-102.4h-102.4v102.4zM51.2 512h102.4v-102.4h-102.4v102.4zM51.2 307.2h102.4v-102.4h-102.4v102.4zM51.2 102.4h102.4v-102.4h-102.4v102.4zM870.4 921.6h102.4v-921.6h-102.4v921.6z" />
<glyph unicode="&#xe938;" glyph-name="border-top" d="M51.2 921.6h921.6v-102.4h-921.6v102.4zM51.2 716.8h102.4v-102.4h-102.4v102.4zM51.2 512h102.4v-102.4h-102.4v102.4zM51.2 307.2h102.4v-102.4h-102.4v102.4zM51.2 102.4h102.4v-102.4h-102.4v102.4zM256 512h102.4v-102.4h-102.4v102.4zM256 102.4h102.4v-102.4h-102.4v102.4zM460.8 716.8h102.4v-102.4h-102.4v102.4zM460.8 512h102.4v-102.4h-102.4v102.4zM460.8 307.2h102.4v-102.4h-102.4v102.4zM460.8 102.4h102.4v-102.4h-102.4v102.4zM665.6 512h102.4v-102.4h-102.4v102.4zM665.6 102.4h102.4v-102.4h-102.4v102.4zM870.4 716.8h102.4v-102.4h-102.4v102.4zM870.4 512h102.4v-102.4h-102.4v102.4zM870.4 307.2h102.4v-102.4h-102.4v102.4zM870.4 102.4h102.4v-102.4h-102.4v102.4z" />
<glyph unicode="&#xe939;" glyph-name="border-vertical" d="M51.2 921.6h102.4v-102.4h-102.4v102.4zM51.2 716.8h102.4v-102.4h-102.4v102.4zM51.2 512h102.4v-102.4h-102.4v102.4zM51.2 307.2h102.4v-102.4h-102.4v102.4zM51.2 102.4h102.4v-102.4h-102.4v102.4zM256 921.6h102.4v-102.4h-102.4v102.4zM256 512h102.4v-102.4h-102.4v102.4zM256 102.4h102.4v-102.4h-102.4v102.4zM460.8 921.6h102.4v-921.6h-102.4v921.6zM665.6 921.6h102.4v-102.4h-102.4v102.4zM665.6 512h102.4v-102.4h-102.4v102.4zM665.6 102.4h102.4v-102.4h-102.4v102.4zM870.4 921.6h102.4v-102.4h-102.4v102.4zM870.4 716.8h102.4v-102.4h-102.4v102.4zM870.4 512h102.4v-102.4h-102.4v102.4zM870.4 307.2h102.4v-102.4h-102.4v102.4zM870.4 102.4h102.4v-102.4h-102.4v102.4z" />
<glyph unicode="&#xe93a;" glyph-name="box" d="M0 870.4c0 56.32 46.080 102.4 102.4 102.4h819.2c56.554 0 102.4-45.846 102.4-102.4v0-102.4h-1024v102.4zM51.2 716.8h921.6v-665.6c0-56.554-45.846-102.4-102.4-102.4v0h-716.8c-56.554 0-102.4 45.846-102.4 102.4v0 665.6zM358.4 614.4v-102.4h307.2v102.4h-307.2z" />
<glyph unicode="&#xe93b;" glyph-name="brightness-down" d="M512 307.2c-84.831 0-153.6 68.769-153.6 153.6s68.769 153.6 153.6 153.6v0c84.831 0 153.6-68.769 153.6-153.6s-68.769-153.6-153.6-153.6v0zM460.8 768c0 28.277 22.923 51.2 51.2 51.2s51.2-22.923 51.2-51.2v0c0-28.277-22.923-51.2-51.2-51.2s-51.2 22.923-51.2 51.2v0zM693.248 714.24c9.446 10.984 23.36 17.897 38.889 17.897 28.277 0 51.2-22.923 51.2-51.2 0-15.528-6.913-29.442-17.829-38.832l-0.067-0.057c-9.446-10.984-23.36-17.897-38.889-17.897-28.277 0-51.2 22.923-51.2 51.2 0 15.528 6.913 29.442 17.829 38.832l0.067 0.057zM819.2 512c28.277 0 51.2-22.923 51.2-51.2s-22.923-51.2-51.2-51.2v0c-28.277 0-51.2 22.923-51.2 51.2s22.923 51.2 51.2 51.2v0zM765.44 279.552c10.984-9.446 17.897-23.36 17.897-38.889 0-28.277-22.923-51.2-51.2-51.2-15.528 0-29.442 6.913-38.832 17.829l-0.057 0.067c-10.984 9.446-17.897 23.36-17.897 38.889 0 28.277 22.923 51.2 51.2 51.2 15.528 0 29.442-6.913 38.832-17.829l0.057-0.067zM563.2 153.6c0-28.277-22.923-51.2-51.2-51.2s-51.2 22.923-51.2 51.2v0c0 28.277 22.923 51.2 51.2 51.2s51.2-22.923 51.2-51.2v0zM330.752 207.36c-9.446-10.984-23.36-17.897-38.889-17.897-28.277 0-51.2 22.923-51.2 51.2 0 15.528 6.913 29.442 17.829 38.832l0.067 0.057c9.446 10.984 23.36 17.897 38.889 17.897 28.277 0 51.2-22.923 51.2-51.2 0-15.528-6.913-29.442-17.829-38.832l-0.067-0.057zM204.8 409.6c-28.277 0-51.2 22.923-51.2 51.2s22.923 51.2 51.2 51.2v0c28.277 0 51.2-22.923 51.2-51.2s-22.923-51.2-51.2-51.2v0zM258.56 642.048c-10.984 9.446-17.897 23.36-17.897 38.889 0 28.277 22.923 51.2 51.2 51.2 15.528 0 29.442-6.913 38.832-17.829l0.057-0.067c10.984-9.446 17.897-23.36 17.897-38.889 0-28.277-22.923-51.2-51.2-51.2-15.528 0-29.442 6.913-38.832 17.829l-0.057 0.067z" />
<glyph unicode="&#xe93c;" glyph-name="brightness-up" d="M512 256c-113.108 0-204.8 91.692-204.8 204.8s91.692 204.8 204.8 204.8v0c113.108 0 204.8-91.692 204.8-204.8s-91.692-204.8-204.8-204.8v0zM460.8 921.6c0 28.277 22.923 51.2 51.2 51.2s51.2-22.923 51.2-51.2v0-102.4c0-28.277-22.923-51.2-51.2-51.2s-51.2 22.923-51.2 51.2v0 102.4zM801.28 822.272c9.446 10.984 23.36 17.897 38.889 17.897 28.277 0 51.2-22.923 51.2-51.2 0-15.528-6.913-29.442-17.829-38.832l-0.067-0.057-71.68-71.68c-9.446-10.984-23.36-17.897-38.889-17.897-28.277 0-51.2 22.923-51.2 51.2 0 15.528 6.913 29.442 17.829 38.832l0.067 0.057 71.68 71.68zM972.288 512c28.277 0 51.2-22.923 51.2-51.2s-22.923-51.2-51.2-51.2v0h-101.376c-28.277 0-51.2 22.923-51.2 51.2s22.923 51.2 51.2 51.2v0h101.376zM873.472 171.52c10.984-9.446 17.897-23.36 17.897-38.889 0-28.277-22.923-51.2-51.2-51.2-15.528 0-29.442 6.913-38.832 17.829l-0.057 0.067-71.68 71.68c-10.984 9.446-17.897 23.36-17.897 38.889 0 28.277 22.923 51.2 51.2 51.2 15.528 0 29.442-6.913 38.832-17.829l0.057-0.067 71.68-71.68zM563.2 0.512c0-28.277-22.923-51.2-51.2-51.2s-51.2 22.923-51.2 51.2v0 101.376c0 28.277 22.923 51.2 51.2 51.2s51.2-22.923 51.2-51.2v0-101.376zM222.72 99.328c-9.446-10.984-23.36-17.897-38.889-17.897-28.277 0-51.2 22.923-51.2 51.2 0 15.528 6.913 29.442 17.829 38.832l0.067 0.057 71.68 71.68c9.446 10.984 23.36 17.897 38.889 17.897 28.277 0 51.2-22.923 51.2-51.2 0-15.528-6.913-29.442-17.829-38.832l-0.067-0.057-71.68-71.68zM51.712 409.6c-28.277 0-51.2 22.923-51.2 51.2s22.923 51.2 51.2 51.2v0h101.376c28.277 0 51.2-22.923 51.2-51.2s-22.923-51.2-51.2-51.2v0h-101.376zM150.528 750.080c-10.984 9.446-17.897 23.36-17.897 38.889 0 28.277 22.923 51.2 51.2 51.2 15.528 0 29.442-6.913 38.832-17.829l0.057-0.067 71.68-71.68c10.984-9.446 17.897-23.36 17.897-38.889 0-28.277-22.923-51.2-51.2-51.2-15.528 0-29.442 6.913-38.832 17.829l-0.057 0.067-71.68 71.68z" />
<glyph unicode="&#xe93d;" glyph-name="browser-window" d="M0 819.2c0 56.32 46.080 102.4 102.4 102.4h819.2c56.554 0 102.4-45.846 102.4-102.4v0-716.8c0-56.554-45.846-102.4-102.4-102.4v0h-819.2c-56.554 0-102.4 45.846-102.4 102.4v0 716.8zM102.4 716.8v-614.4h819.2v614.4h-819.2z" />
<glyph unicode="&#xe93e;" glyph-name="browser-window-new" d="M460.8 460.8v102.4h102.4v-102.4h102.4v-102.4h-102.4v-102.4h-102.4v102.4h-102.4v102.4h102.4zM0 819.2c0 56.32 46.080 102.4 102.4 102.4h819.2c56.554 0 102.4-45.846 102.4-102.4v0-716.8c0-56.554-45.846-102.4-102.4-102.4v0h-819.2c-56.554 0-102.4 45.846-102.4 102.4v0 716.8zM102.4 716.8v-614.4h819.2v614.4h-819.2z" />
<glyph unicode="&#xe93f;" glyph-name="browser-window-open" d="M0 819.2c0 56.32 46.080 102.4 102.4 102.4h819.2c56.554 0 102.4-45.846 102.4-102.4v0-716.8c0-56.554-45.846-102.4-102.4-102.4v0h-819.2c-56.554 0-102.4 45.846-102.4 102.4v0 716.8zM102.4 716.8v-614.4h819.2v614.4h-819.2zM512 563.2l204.8-256h-409.6l204.8 256z" />
<glyph unicode="&#xe940;" glyph-name="bug" d="M783.36 210.432l141.824-141.824c9.201-9.255 14.889-22.011 14.889-36.096s-5.687-26.842-14.891-36.098l0.002 0.002c-9.255-9.201-22.011-14.889-36.096-14.889s-26.842 5.687-36.098 14.891l0.002-0.002-132.608 132.096c-42.249-39.19-95.857-66.691-155.351-77.048l-1.833-0.264v458.752c0 28.277-22.923 51.2-51.2 51.2s-51.2-22.923-51.2-51.2v0-458.752c-61.334 10.59-114.949 38.098-157.377 77.489l0.193-0.177-132.608-132.096c-9.255-9.201-22.011-14.889-36.096-14.889s-26.842 5.687-36.098 14.891l0.002-0.002c-9.201 9.255-14.889 22.011-14.889 36.096s5.687 26.842 14.891 36.098l141.822 141.822c-15.247 27.991-26.531 60.547-32.028 95.033l-0.228 1.735h-157.184c-28.277 0-51.2 22.923-51.2 51.2s22.923 51.2 51.2 51.2v0h153.6v132.608l-157.184 157.184c-9.201 9.255-14.889 22.011-14.889 36.096s5.687 26.842 14.891 36.098l-0.002-0.002c9.255 9.201 22.011 14.889 36.096 14.889s26.842-5.687 36.098-14.891l107.518-107.518h569.344l107.52 107.52c9.255 9.201 22.011 14.889 36.096 14.889s26.842-5.687 36.098-14.891l-0.002 0.002c9.201-9.255 14.889-22.011 14.889-36.096s-5.687-26.842-14.891-36.098l-157.182-157.182v-132.608h153.6c28.277 0 51.2-22.923 51.2-51.2s-22.923-51.2-51.2-51.2v0h-157.184c-5.12-34.304-16.384-67.072-32.256-96.768zM768 716.8h-512c0 141.385 114.615 256 256 256s256-114.615 256-256v0z" />
<glyph unicode="&#xe941;" glyph-name="buoy" d="M878.592 644.096c-40.509 79.622-103.674 142.787-180.967 182.218l-2.329 1.078-68.608-137.728c49.559-25.288 88.888-64.617 113.502-112.725l0.674-1.451 137.728 68.608zM878.592 277.504l-137.728 68.608c-25.288-49.559-64.617-88.888-112.725-113.502l-1.451-0.674 68.608-137.728c79.622 40.509 142.787 103.674 182.218 180.967l1.078 2.329zM328.704 827.392c-79.622-40.509-142.787-103.674-182.218-180.967l-1.078-2.329 137.728-68.608c25.288 49.559 64.617 88.888 112.725 113.502l1.451 0.674-68.608 137.728zM145.408 277.504c40.509-79.622 103.674-142.787 180.967-182.218l2.329-1.078 68.608 137.728c-49.559 25.288-88.888 64.617-113.502 112.725l-0.674 1.451-137.728-68.608zM512-51.2c-282.77 0-512 229.23-512 512s229.23 512 512 512v0c282.77 0 512-229.23 512-512s-229.23-512-512-512v0zM512 307.2c84.831 0 153.6 68.769 153.6 153.6s-68.769 153.6-153.6 153.6v0c-84.831 0-153.6-68.769-153.6-153.6s68.769-153.6 153.6-153.6v0z" />
<glyph unicode="&#xe942;" glyph-name="calculator" d="M102.4 870.4c0 56.32 46.080 102.4 102.4 102.4h614.4c56.554 0 102.4-45.846 102.4-102.4v0-819.2c0-56.554-45.846-102.4-102.4-102.4v0h-614.4c-56.554 0-102.4 45.846-102.4 102.4v0 819.2zM256 819.2v-102.4h512v102.4h-512zM256 614.4v-102.4h102.4v102.4h-102.4zM460.8 614.4v-102.4h102.4v102.4h-102.4zM665.6 614.4v-102.4h102.4v102.4h-102.4zM256 409.6v-102.4h102.4v102.4h-102.4zM460.8 409.6v-102.4h102.4v102.4h-102.4zM665.6 409.6v-307.2h102.4v307.2h-102.4zM256 204.8v-102.4h102.4v102.4h-102.4zM460.8 204.8v-102.4h102.4v102.4h-102.4z" />
<glyph unicode="&#xe943;" glyph-name="calendar" d="M51.2 768c0 56.32 46.080 102.4 102.4 102.4h716.8c56.554 0 102.4-45.846 102.4-102.4v0-716.8c0-56.554-45.846-102.4-102.4-102.4v0h-716.8c-56.554 0-102.4 45.846-102.4 102.4v0 716.8zM153.6 665.6v-614.4h716.8v614.4h-716.8zM256 972.8h102.4v-102.4h-102.4v102.4zM665.6 972.8h102.4v-102.4h-102.4v102.4zM256 512h102.4v-102.4h-102.4v102.4zM256 307.2h102.4v-102.4h-102.4v102.4zM460.8 512h102.4v-102.4h-102.4v102.4zM460.8 307.2h102.4v-102.4h-102.4v102.4zM665.6 512h102.4v-102.4h-102.4v102.4zM665.6 307.2h102.4v-102.4h-102.4v102.4z" />
<glyph unicode="&#xe944;" glyph-name="camera" d="M0 665.6c0 56.32 46.080 102.4 102.4 102.4h153.6l102.4 102.4h307.2l102.4-102.4h153.6c56.554 0 102.4-45.846 102.4-102.4v0-512c0-56.554-45.846-102.4-102.4-102.4v0h-819.2c-56.554 0-102.4 45.846-102.4 102.4v0 512zM512 153.6c141.385 0 256 114.615 256 256s-114.615 256-256 256v0c-141.385 0-256-114.615-256-256s114.615-256 256-256v0zM512 256c-84.831 0-153.6 68.769-153.6 153.6s68.769 153.6 153.6 153.6v0c84.831 0 153.6-68.769 153.6-153.6s-68.769-153.6-153.6-153.6v0z" />
<glyph unicode="&#xe945;" glyph-name="chart" d="M211.456 358.4h-6.656c-56.357-0.26-101.943-46.006-101.943-102.399 0-56.554 45.846-102.4 102.4-102.4s102.4 45.846 102.4 102.4c0 16.603-3.952 32.284-10.966 46.152l0.268-0.585 105.472 159.232c1.69-0.098 3.667-0.154 5.656-0.154 9.83 0 19.342 1.365 28.356 3.915l-0.732-0.177 79.36-79.36c-2.262-8.030-3.563-17.251-3.563-26.776 0-56.554 45.846-102.4 102.4-102.4s102.4 45.846 102.4 102.4c0 16.663-3.98 32.397-11.042 46.303l0.269-0.583 107.008 159.232h6.656c56.357 0.26 101.943 46.006 101.943 102.399 0 56.554-45.846 102.4-102.4 102.4s-102.4-45.846-102.4-102.4c0-16.603 3.952-32.284 10.966-46.152l-0.268 0.585-105.472-159.232c-1.69 0.098-3.667 0.154-5.656 0.154-9.83 0-19.342-1.365-28.356-3.915l0.732 0.177-79.872 79.36c2.262 8.030 3.563 17.251 3.563 26.776 0 56.554-45.846 102.4-102.4 102.4s-102.4-45.846-102.4-102.4c0-16.663 3.98-32.397 11.042-46.303l-0.269 0.583-106.496-159.232zM0 768c0 56.32 46.080 102.4 102.4 102.4h819.2c56.554 0 102.4-45.846 102.4-102.4v0-614.4c0-56.554-45.846-102.4-102.4-102.4v0h-819.2c-56.554 0-102.4 45.846-102.4 102.4v0 614.4z" />
<glyph unicode="&#xe946;" glyph-name="chart-bar" d="M51.2 460.8h153.6v-512h-153.6v512zM307.2 972.8h153.6v-1024h-153.6v1024zM563.2 563.2h153.6v-614.4h-153.6v614.4zM819.2 768h153.6v-819.2h-153.6v819.2z" />
<glyph unicode="&#xe947;" glyph-name="chart-pie" d="M1021.44 409.6c-26.89-259.87-244.697-460.793-509.433-460.793-282.77 0-512 229.23-512 512 0 264.736 200.924 482.543 458.597 509.248l2.196 0.184v-560.64h560.64zM1017.344 542.72h-423.424v423.424c217.691-36.271 387.153-205.732 423.011-420.43l0.413-2.994z" />
<glyph unicode="&#xe948;" glyph-name="chat-bubble-dots" d="M512 204.8l-204.8-204.8v204.8h-204.8c-56.554 0-102.4 45.846-102.4 102.4v0 512c0 56.32 46.080 102.4 102.4 102.4h819.2c56.554 0 102.4-45.846 102.4-102.4v0-512c0-56.554-45.846-102.4-102.4-102.4v0h-409.6zM256 614.4v-102.4h102.4v102.4h-102.4zM460.8 614.4v-102.4h102.4v102.4h-102.4zM665.6 614.4v-102.4h102.4v102.4h-102.4z" />
<glyph unicode="&#xe949;" glyph-name="checkmark" d="M0 409.6l102.4 102.4 256-256 563.2 563.2 102.4-102.4-665.6-665.6z" />
<glyph unicode="&#xe94a;" glyph-name="checkmark-outline" d="M150.016 98.816c-96.436 93.233-156.308 223.762-156.308 368.276 0 282.77 229.23 512 512 512 144.514 0 275.043-59.872 368.137-156.164l0.138-0.144c88.925-91.979 143.724-217.436 143.724-355.692 0-282.77-229.23-512-512-512-138.256 0-263.713 54.799-355.836 143.863l0.144-0.138zM801.792 171.008c74.164 74.164 120.036 176.621 120.036 289.792 0 226.342-183.486 409.828-409.828 409.828-113.171 0-215.628-45.872-289.792-120.036v0c-74.164-74.164-120.036-176.621-120.036-289.792 0-226.342 183.486-409.828 409.828-409.828 113.171 0 215.628 45.872 289.792 120.036v0zM343.040 497.152l117.76-118.272 220.16 220.16 71.68-72.704-291.84-290.816-189.44 189.44 71.68 72.704z" />
<glyph unicode="&#xe94b;" glyph-name="cheveron-down" d="M475.802 309.76l36.198-36.198 289.638 289.638-72.397 72.397-217.242-217.19-217.242 217.19-72.397-72.397z" />
<glyph unicode="&#xe94c;" glyph-name="cheveron-left" d="M360.96 496.998l-36.198-36.198 289.638-289.638 72.397 72.397-217.19 217.242 217.19 217.242-72.397 72.397z" />
<glyph unicode="&#xe94d;" glyph-name="cheveron-outline-down" d="M1024 460.8c0-282.77-229.23-512-512-512s-512 229.23-512 512v0c0 282.77 229.23 512 512 512s512-229.23 512-512v0zM512 870.4c-226.216 0-409.6-183.384-409.6-409.6s183.384-409.6 409.6-409.6v0c226.216 0 409.6 183.384 409.6 409.6s-183.384 409.6-409.6 409.6v0zM476.16 330.752l-181.76 181.248 72.192 72.192 145.408-143.872 144.896 144.384 72.192-72.704-217.088-217.088-35.84 35.84z" />
<glyph unicode="&#xe94e;" glyph-name="cheveron-outline-left" d="M512-51.2c-282.77 0-512 229.23-512 512s229.23 512 512 512v0c282.77 0 512-229.23 512-512s-229.23-512-512-512v0zM921.6 460.8c0 226.216-183.384 409.6-409.6 409.6s-409.6-183.384-409.6-409.6v0c0-226.216 183.384-409.6 409.6-409.6s409.6 183.384 409.6 409.6v0zM381.952 496.64l181.248 181.76 72.192-72.192-143.872-145.408 144.384-144.896-72.704-72.192-217.088 217.088 35.84 35.84z" />
<glyph unicode="&#xe94f;" glyph-name="cheveron-outline-right" d="M512 972.8c282.77 0 512-229.23 512-512s-229.23-512-512-512v0c-282.77 0-512 229.23-512 512s229.23 512 512 512v0zM102.4 460.8c0-226.216 183.384-409.6 409.6-409.6s409.6 183.384 409.6 409.6v0c0 226.216-183.384 409.6-409.6 409.6s-409.6-183.384-409.6-409.6v0zM642.048 424.96l-181.248-181.76-72.192 72.192 143.872 145.408-143.36 144.896 71.68 72.192 217.088-217.088-35.84-35.84z" />
<glyph unicode="&#xe950;" glyph-name="cheveron-outline-up" d="M0 460.8c0 282.77 229.23 512 512 512s512-229.23 512-512v0c0-282.77-229.23-512-512-512s-512 229.23-512 512v0zM512 51.2c226.216 0 409.6 183.384 409.6 409.6s-183.384 409.6-409.6 409.6v0c-226.216 0-409.6-183.384-409.6-409.6s183.384-409.6 409.6-409.6v0zM547.84 590.848l181.76-181.248-72.192-72.192-145.408 143.872-144.896-143.36-72.192 71.68 217.088 217.088 35.84-35.84z" />
<glyph unicode="&#xe951;" glyph-name="cheveron-right" d="M663.040 424.602l36.198 36.198-289.638 289.638-72.397-72.397 217.19-217.242-217.19-217.242 72.397-72.397 253.44 253.44z" />
<glyph unicode="&#xe952;" glyph-name="cheveron-up" d="M548.198 611.84l-36.198 36.198-289.638-289.638 72.397-72.397 217.242 217.19 217.242-217.19 72.397 72.397z" />
<glyph unicode="&#xe953;" glyph-name="clipboard" d="M359.936 839.68c10.988 74.998 74.877 131.932 152.064 131.932s141.076-56.934 151.964-131.098l0.1-0.834 103.936-20.48v-51.2h51.2c56.554 0 102.4-45.846 102.4-102.4v0-614.4c0-56.554-45.846-102.4-102.4-102.4v0h-614.4c-56.554 0-102.4 45.846-102.4 102.4v0 614.4c0 56.32 46.080 102.4 102.4 102.4h51.2v51.2l103.936 20.48zM256 665.6h-51.2v-614.4h614.4v614.4h-51.2v-51.2h-512v51.2zM512 768c28.277 0 51.2 22.923 51.2 51.2s-22.923 51.2-51.2 51.2v0c-28.277 0-51.2-22.923-51.2-51.2s22.923-51.2 51.2-51.2v0z" />
<glyph unicode="&#xe954;" glyph-name="close" d="M512 533.197l-362.035 362.035-72.397-72.397 362.035-362.035-362.035-362.035 72.397-72.397 362.035 362.035 362.035-362.035 72.397 72.397-362.035 362.035 362.035 362.035-72.397 72.397-362.035-362.035z" />
<glyph unicode="&#xe955;" glyph-name="close-outline" d="M150.016 98.816c-96.436 93.233-156.308 223.762-156.308 368.276 0 282.77 229.23 512 512 512 144.514 0 275.043-59.872 368.137-156.164l0.138-0.144c88.925-91.979 143.724-217.436 143.724-355.692 0-282.77-229.23-512-512-512-138.256 0-263.713 54.799-355.836 143.863l0.144-0.138zM222.208 171.008c74.164-74.164 176.621-120.036 289.792-120.036 226.342 0 409.828 183.486 409.828 409.828 0 113.171-45.872 215.628-120.036 289.792v0c-74.164 74.164-176.621 120.036-289.792 120.036-226.342 0-409.828-183.486-409.828-409.828 0-113.171 45.872-215.628 120.036-289.792v0zM729.088 605.696l-144.896-144.896 144.896-144.896-72.192-72.192-144.896 144.896-144.896-144.896-72.192 72.192 144.896 144.896-144.896 144.896 72.192 72.192 144.896-144.896 144.896 144.896 72.192-72.192z" />
<glyph unicode="&#xe956;" glyph-name="close-solid" d="M150.016 98.816c-96.436 93.233-156.308 223.762-156.308 368.276 0 282.77 229.23 512 512 512 144.514 0 275.043-59.872 368.137-156.164l0.138-0.144c88.925-91.979 143.724-217.436 143.724-355.692 0-282.77-229.23-512-512-512-138.256 0-263.713 54.799-355.836 143.863l0.144-0.138zM583.68 460.8l144.896 144.896-72.192 72.192-144.384-144.896-144.896 144.896-72.192-72.192 144.896-144.896-144.896-144.896 72.192-72.192 144.896 144.896 144.896-144.896 72.192 72.192-144.896 144.896z" />
<glyph unicode="&#xe957;" glyph-name="cloud" d="M864.256 506.88c91.895-21.475 159.295-102.707 159.295-199.68 0-112.95-91.436-204.544-204.326-204.799h-563.225c-0.076 0-0.167 0-0.257 0-141.385 0-256 114.615-256 256 0 123.353 87.244 226.33 203.394 250.589l1.664 0.291v5.12c0 0.054 0 0.119 0 0.183 0 84.831 68.769 153.6 153.6 153.6 28.694 0 55.55-7.868 78.528-21.564l-0.704 0.389c46.031 45.498 109.339 73.604 179.212 73.604 140.819 0 254.976-114.157 254.976-254.976 0-0.856-0.004-1.712-0.013-2.566l0.001 0.13c0-19.456-2.048-37.888-6.144-56.32z" />
<glyph unicode="&#xe958;" glyph-name="cloud-upload" d="M864.256 506.88c91.895-21.475 159.295-102.707 159.295-199.68 0-112.95-91.436-204.544-204.326-204.799h-563.225c-0.076 0-0.167 0-0.257 0-141.385 0-256 114.615-256 256 0 123.353 87.244 226.33 203.394 250.589l1.664 0.291v5.12c0 0.054 0 0.119 0 0.183 0 84.831 68.769 153.6 153.6 153.6 28.694 0 55.55-7.868 78.528-21.564l-0.704 0.389c46.031 45.498 109.339 73.604 179.212 73.604 140.819 0 254.976-114.157 254.976-254.976 0-0.856-0.004-1.712-0.013-2.566l0.001 0.13c0-19.456-2.048-37.888-6.144-56.32zM563.2 409.6h153.6l-204.8 204.8-204.8-204.8h153.6v-153.6h102.4v153.6z" />
<glyph unicode="&#xe959;" glyph-name="code" d="M35.84 496.64l245.76 245.76 71.68-72.704-207.872-208.896 208.384-208.384-72.192-72.704-281.6 281.088 35.84 35.84zM988.16 424.96l35.84 35.84-281.088 281.088-71.68-72.704 207.36-208.384-208.384-208.384 72.192-72.704 244.736 244.736z" />
<glyph unicode="&#xe95a;" glyph-name="coffee" d="M204.8 409.6h-102.4c-56.554 0-102.4 45.846-102.4 102.4v0 204.8c0 56.32 46.080 102.4 102.4 102.4h102.4v102.4h716.8v-512c0-113.108-91.692-204.8-204.8-204.8v0h-307.2c-113.108 0-204.8 91.692-204.8 204.8v0zM204.8 512v204.8h-102.4v-204.8h102.4zM102.4 102.4v51.2h921.6v-51.2l-204.8-102.4h-512l-204.8 102.4z" />
<glyph unicode="&#xe95b;" glyph-name="cog" d="M201.728 640l-88.064 146.432 72.704 72.704 146.432-88.064c26.624 15.36 56.32 27.648 87.040 35.84l40.96 165.888h102.4l40.96-165.888c30.72-8.192 60.416-20.48 87.040-35.84l146.432 88.064 72.704-72.704-88.064-146.432c15.36-26.624 27.648-56.32 35.84-87.040l165.888-40.96v-102.4l-165.888-40.96c-8.192-30.72-20.48-60.416-35.84-87.040l88.064-146.432-72.704-72.704-146.432 88.064c-26.624-15.36-56.32-27.648-87.040-35.84l-40.96-165.888h-102.4l-40.96 165.888c-30.72 8.192-60.416 20.48-87.040 35.84l-146.432-88.064-72.704 72.704 88.064 146.432c-15.36 26.624-27.648 56.32-35.84 87.040l-165.888 40.96v102.4l165.888 40.96c8.192 30.72 20.48 60.416 35.84 87.040zM512 307.2c84.831 0 153.6 68.769 153.6 153.6s-68.769 153.6-153.6 153.6v0c-84.831 0-153.6-68.769-153.6-153.6s68.769-153.6 153.6-153.6v0z" />
<glyph unicode="&#xe95c;" glyph-name="color-palette" d="M460.8-51.2v87.040l0.512 12.288 310.272 310.272h150.528c56.32 0 101.888-45.568 101.888-102.4v-204.8c0-56.554-45.846-102.4-102.4-102.4v0h-460.8zM460.8 119.808v579.584l106.496 105.984c18.453 18.526 43.984 29.989 72.192 29.989s53.739-11.463 72.189-29.986l144.899-144.899c18.402-18.509 29.777-44.022 29.777-72.192s-11.375-53.683-29.782-72.197l0.005 0.005-395.776-396.288zM0 870.912c0 55.808 45.568 101.888 102.4 101.888h204.8c56.554 0 102.4-45.846 102.4-102.4v0-819.2c0-56.554-45.846-102.4-102.4-102.4v0h-204.8c-56.554 0-102.4 45.846-102.4 102.4v0 819.2zM204.8 102.4c28.277 0 51.2 22.923 51.2 51.2s-22.923 51.2-51.2 51.2v0c-28.277 0-51.2-22.923-51.2-51.2s22.923-51.2 51.2-51.2v0z" />
<glyph unicode="&#xe95d;" glyph-name="compose" d="M102.4 768v-716.8h716.8v307.2l102.4 102.4v-512h-921.6v921.6h512l-102.4-102.4h-307.2zM629.76 783.36l204.8-204.8-424.96-424.96h-204.8v204.8l424.96 424.96zM701.44 855.040l117.76 117.76 204.8-204.8-117.76-117.76-204.8 204.8z" />
<glyph unicode="&#xe95e;" glyph-name="computer-desktop" d="M358.4 102.4h-256c-56.554 0-102.4 45.846-102.4 102.4v0 665.6c0 56.32 46.080 102.4 102.4 102.4h819.2c56.554 0 102.4-45.846 102.4-102.4v0-665.6c0-56.554-45.846-102.4-102.4-102.4v0h-256l204.8-102.4v-51.2h-716.8v51.2l204.8 102.4zM102.4 870.4v-563.2h819.2v563.2h-819.2z" />
<glyph unicode="&#xe95f;" glyph-name="computer-laptop" d="M921.6 153.6h102.4v-51.2c0-28.277-22.923-51.2-51.2-51.2v0h-921.6c-28.277 0-51.2 22.923-51.2 51.2v0 51.2h102.4v614.4c0 56.32 46.080 102.4 102.4 102.4h614.4c56.554 0 102.4-45.846 102.4-102.4v0-614.4zM204.8 768v-460.8h614.4v460.8h-614.4zM409.6 204.8v-51.2h204.8v51.2h-204.8z" />
<glyph unicode="&#xe960;" glyph-name="conversation" d="M870.4 409.6v-153.6l-153.6 153.6h-307.2c-56.554 0-102.4 45.846-102.4 102.4v0 358.4c0 56.32 46.080 102.4 102.4 102.4h512c56.554 0 102.4-45.846 102.4-102.4v0-358.4c0-56.554-45.846-102.4-102.4-102.4v0h-51.2zM716.8 307.2v-102.4c0-56.554-45.846-102.4-102.4-102.4v0h-307.2l-153.6-153.6v153.6h-51.2c-56.554 0-102.4 45.846-102.4 102.4v0 358.4c0 56.32 46.080 102.4 102.4 102.4h102.4v-153.6c0-113.108 91.692-204.8 204.8-204.8v0h307.2z" />
<glyph unicode="&#xe961;" glyph-name="copy" d="M307.2 665.6v204.8c0 56.32 46.080 102.4 102.4 102.4h512c56.554 0 102.4-45.846 102.4-102.4v0-512c0-56.554-45.846-102.4-102.4-102.4v0h-204.8v-204.8c0-56.554-45.846-102.4-102.4-102.4v0h-512c-56.554 0-102.4 45.846-102.4 102.4v0 512c0 56.32 46.080 102.4 102.4 102.4h204.8zM409.6 665.6h204.8c56.554 0 102.4-45.846 102.4-102.4v0-204.8h204.8v512h-512v-204.8zM102.4 563.2v-512h512v512h-512z" />
<glyph unicode="&#xe962;" glyph-name="credit-card" d="M921.6 665.6v102.4h-819.2v-102.4h819.2zM921.6 460.8h-819.2v-307.2h819.2v307.2zM0 768c0 56.32 46.080 102.4 102.4 102.4h819.2c56.554 0 102.4-45.846 102.4-102.4v0-614.4c0-56.554-45.846-102.4-102.4-102.4v0h-819.2c-56.554 0-102.4 45.846-102.4 102.4v0 614.4zM204.8 358.4h204.8v-102.4h-204.8v102.4z" />
<glyph unicode="&#xe963;" glyph-name="currency-dollar" d="M512-51.2c-282.77 0-512 229.23-512 512s229.23 512 512 512v0c282.77 0 512-229.23 512-512s-229.23-512-512-512v0zM563.2 204.8h51.2c84.831 0 153.6 68.769 153.6 153.6s-68.769 153.6-153.6 153.6v0h-205.312c-28.277 0-51.2 22.923-51.2 51.2s22.923 51.2 51.2 51.2v0h307.712v102.4h-153.6v102.4h-102.4v-102.4h-51.2c-84.831 0-153.6-68.769-153.6-153.6s68.769-153.6 153.6-153.6v0h204.8c28.277 0 51.2-22.923 51.2-51.2s-22.923-51.2-51.2-51.2v0h-307.2v-102.4h153.6v-102.4h102.4v102.4z" />
<glyph unicode="&#xe964;" glyph-name="dashboard" d="M512-51.2c-282.77 0-512 229.23-512 512s229.23 512 512 512v0c282.77 0 512-229.23 512-512s-229.23-512-512-512v0zM225.28 168.448c80.288 55.312 179.647 88.345 286.72 88.345s206.432-33.033 288.44-89.464l-1.72 1.119c75.859 74.399 122.88 177.965 122.88 292.513 0 226.216-183.384 409.6-409.6 409.6s-409.6-183.384-409.6-409.6c0-114.548 47.021-218.114 122.814-292.449l0.066-0.064zM538.624 559.616l154.624 154.624 72.192-72.192-154.624-154.624c2.245-7.999 3.535-17.186 3.535-26.673 0-56.554-45.846-102.4-102.4-102.4s-102.4 45.846-102.4 102.4c0 56.554 45.846 102.4 102.4 102.4 9.488 0 18.674-1.29 27.393-3.705l-0.72 0.17z" />
<glyph unicode="&#xe965;" glyph-name="date-add" d="M768 870.4h102.4c56.554 0 102.4-45.846 102.4-102.4v0-716.8c0-56.554-45.846-102.4-102.4-102.4v0h-716.8c-56.554 0-102.4 45.846-102.4 102.4v0 716.8c0 56.32 46.080 102.4 102.4 102.4h102.4v102.4h102.4v-102.4h307.2v102.4h102.4v-102.4zM153.6 665.6v-614.4h716.8v614.4h-716.8zM460.8 409.6v102.4h102.4v-102.4h102.4v-102.4h-102.4v-102.4h-102.4v102.4h-102.4v102.4h102.4z" />
<glyph unicode="&#xe966;" glyph-name="dial-pad" d="M256 768c-56.554 0-102.4 45.846-102.4 102.4s45.846 102.4 102.4 102.4v0c56.554 0 102.4-45.846 102.4-102.4s-45.846-102.4-102.4-102.4v0zM512 768c-56.554 0-102.4 45.846-102.4 102.4s45.846 102.4 102.4 102.4v0c56.554 0 102.4-45.846 102.4-102.4s-45.846-102.4-102.4-102.4v0zM768 768c-56.554 0-102.4 45.846-102.4 102.4s45.846 102.4 102.4 102.4v0c56.554 0 102.4-45.846 102.4-102.4s-45.846-102.4-102.4-102.4v0zM256 512c-56.554 0-102.4 45.846-102.4 102.4s45.846 102.4 102.4 102.4v0c56.554 0 102.4-45.846 102.4-102.4s-45.846-102.4-102.4-102.4v0zM512 512c-56.554 0-102.4 45.846-102.4 102.4s45.846 102.4 102.4 102.4v0c56.554 0 102.4-45.846 102.4-102.4s-45.846-102.4-102.4-102.4v0zM768 512c-56.554 0-102.4 45.846-102.4 102.4s45.846 102.4 102.4 102.4v0c56.554 0 102.4-45.846 102.4-102.4s-45.846-102.4-102.4-102.4v0zM256 256c-56.554 0-102.4 45.846-102.4 102.4s45.846 102.4 102.4 102.4v0c56.554 0 102.4-45.846 102.4-102.4s-45.846-102.4-102.4-102.4v0zM512 256c-56.554 0-102.4 45.846-102.4 102.4s45.846 102.4 102.4 102.4v0c56.554 0 102.4-45.846 102.4-102.4s-45.846-102.4-102.4-102.4v0zM512-51.2c-56.554 0-102.4 45.846-102.4 102.4s45.846 102.4 102.4 102.4v0c56.554 0 102.4-45.846 102.4-102.4s-45.846-102.4-102.4-102.4v0zM768 256c-56.554 0-102.4 45.846-102.4 102.4s45.846 102.4 102.4 102.4v0c56.554 0 102.4-45.846 102.4-102.4s-45.846-102.4-102.4-102.4v0z" />
<glyph unicode="&#xe967;" glyph-name="directions" d="M512 972.8l512-512-512-512-512 512 512 512zM307.2 460.8v-153.6h102.4v153.6h153.6v-153.6l204.8 204.8-204.8 204.8v-153.6h-153.6c-56.554 0-102.4-45.846-102.4-102.4v0z" />
<glyph unicode="&#xe968;" glyph-name="document" d="M204.8 51.2h614.4v614.4h-204.8v204.8h-409.6v-819.2zM102.4 0v972.8h614.4l204.8-204.8v-819.2h-819.2v51.2z" />
<glyph unicode="&#xe969;" glyph-name="document-add" d="M460.8 460.8v102.4h102.4v-102.4h102.4v-102.4h-102.4v-102.4h-102.4v102.4h-102.4v102.4h102.4zM204.8 51.2h614.4v614.4h-204.8v204.8h-409.6v-819.2zM102.4 0v972.8h614.4l204.8-204.8v-819.2h-819.2v51.2z" />
<glyph unicode="&#xe96a;" glyph-name="dots-horizontal-double" d="M512 512c-56.554 0-102.4 45.846-102.4 102.4s45.846 102.4 102.4 102.4v0c56.554 0 102.4-45.846 102.4-102.4s-45.846-102.4-102.4-102.4v0zM512 204.8c-56.554 0-102.4 45.846-102.4 102.4s45.846 102.4 102.4 102.4v0c56.554 0 102.4-45.846 102.4-102.4s-45.846-102.4-102.4-102.4v0z" />
<glyph unicode="&#xe96b;" glyph-name="dots-horizontal-triple" d="M512 358.4c-56.554 0-102.4 45.846-102.4 102.4s45.846 102.4 102.4 102.4v0c56.554 0 102.4-45.846 102.4-102.4s-45.846-102.4-102.4-102.4v0zM512 665.6c-56.554 0-102.4 45.846-102.4 102.4s45.846 102.4 102.4 102.4v0c56.554 0 102.4-45.846 102.4-102.4s-45.846-102.4-102.4-102.4v0zM512 51.2c-56.554 0-102.4 45.846-102.4 102.4s45.846 102.4 102.4 102.4v0c56.554 0 102.4-45.846 102.4-102.4s-45.846-102.4-102.4-102.4v0z" />
<glyph unicode="&#xe96c;" glyph-name="download" d="M665.6 563.2v307.2h-307.2v-307.2h-256l409.6-409.6 409.6 409.6h-256zM0 51.2h1024v-102.4h-1024v102.4z" />
<glyph unicode="&#xe96d;" glyph-name="duplicate" d="M307.2 665.6v204.8c0 56.32 46.080 102.4 102.4 102.4h512c56.554 0 102.4-45.846 102.4-102.4v0-512c0-56.554-45.846-102.4-102.4-102.4v0h-204.8v-204.8c0-56.554-45.846-102.4-102.4-102.4v0h-512c-56.554 0-102.4 45.846-102.4 102.4v0 512c0 56.32 46.080 102.4 102.4 102.4h204.8zM409.6 665.6h204.8c56.554 0 102.4-45.846 102.4-102.4v0-204.8h204.8v512h-512v-204.8zM102.4 563.2v-512h512v512h-512zM307.2 358.4v102.4h102.4v-102.4h102.4v-102.4h-102.4v-102.4h-102.4v102.4h-102.4v102.4h102.4z" />
<glyph unicode="&#xe96e;" glyph-name="edit-copy" d="M307.2 665.6v204.8c0 56.32 46.080 102.4 102.4 102.4h512c56.554 0 102.4-45.846 102.4-102.4v0-512c0-56.554-45.846-102.4-102.4-102.4v0h-204.8v-204.8c0-56.554-45.846-102.4-102.4-102.4v0h-512c-56.554 0-102.4 45.846-102.4 102.4v0 512c0 56.32 46.080 102.4 102.4 102.4h204.8zM409.6 665.6h204.8c56.554 0 102.4-45.846 102.4-102.4v0-204.8h204.8v512h-512v-204.8zM102.4 563.2v-512h512v512h-512z" />
<glyph unicode="&#xe96f;" glyph-name="edit-crop" d="M716.8 153.6h-409.6c-56.554 0-102.4 45.846-102.4 102.4v0 409.6h-204.8v102.4h204.8v204.8h102.4v-716.8h716.8v-102.4h-204.8v-204.8h-102.4v204.8zM716.8 307.2v358.4h-358.4v102.4h358.4c56.554 0 102.4-45.846 102.4-102.4v0-358.4h-102.4z" />
<glyph unicode="&#xe970;" glyph-name="edit-cut" d="M500.224 384l273.408-200.192c22.528-16.896 63.488-30.208 91.648-30.208h158.72l-671.232 492.544c3.697 13.593 5.821 29.201 5.821 45.304 0 98.969-80.231 179.2-179.2 179.2s-179.2-80.231-179.2-179.2c0-98.969 80.231-179.2 179.2-179.2 38.242 0 73.686 11.979 102.785 32.389l-0.574-0.382 114.176-83.456-114.176-83.456c-28.653 20.296-64.326 32.444-102.836 32.444-98.969 0-179.2-80.231-179.2-179.2s80.231-179.2 179.2-179.2c98.969 0 179.2 80.231 179.2 179.2 0 15.945-2.083 31.404-5.99 46.119l0.282-1.251 148.48 108.544zM179.2 614.4c-42.415 0-76.8 34.385-76.8 76.8s34.385 76.8 76.8 76.8v0c42.415 0 76.8-34.385 76.8-76.8s-34.385-76.8-76.8-76.8v0zM179.2 153.6c-42.415 0-76.8 34.385-76.8 76.8s34.385 76.8 76.8 76.8v0c42.415 0 76.8-34.385 76.8-76.8s-34.385-76.8-76.8-76.8v0zM773.12 737.792c25.974 17.548 57.63 28.603 91.759 30.193l0.401 0.015h158.72l-384-281.6-104.96 76.8 238.080 174.592z" />
<glyph unicode="&#xe971;" glyph-name="edit-pencil" d="M629.76 783.36l204.8-204.8-629.76-629.76h-204.8v204.8l629.76 629.76zM701.44 855.040l117.76 117.76 204.8-204.8-117.76-117.76-204.8 204.8z" />
<glyph unicode="&#xe972;" glyph-name="education" d="M170.496 563.2l341.504-204.8 512 307.2-512 307.2-512-307.2h512v-102.4h-341.504zM0 563.2v-409.6l102.4 113.664v234.496l-102.4 61.44zM512-51.2l-358.4 215.040v307.2l358.4-215.040 358.4 215.040v-307.2l-358.4-215.040z" />
<glyph unicode="&#xe973;" glyph-name="envelope" d="M921.6 870.4c56.554 0 102.4-45.846 102.4-102.4v0-614.4c0-56.554-45.846-102.4-102.4-102.4v0h-819.2c-56.554 0-102.4 45.846-102.4 102.4v0 614.4c0 56.32 46.080 102.4 102.4 102.4h819.2zM697.856 404.48l326.144-250.88v102.4l-262.144 199.68 262.144 209.92v102.4l-512-409.6-512 409.6v-102.4l262.144-209.92-262.144-199.68v-102.4l326.144 250.88 185.856-148.48 185.856 148.48z" />
<glyph unicode="&#xe974;" glyph-name="exclamation-outline" d="M150.016 98.816c-96.436 93.233-156.308 223.762-156.308 368.276 0 282.77 229.23 512 512 512 144.514 0 275.043-59.872 368.137-156.164l0.138-0.144c88.925-91.979 143.724-217.436 143.724-355.692 0-282.77-229.23-512-512-512-138.256 0-263.713 54.799-355.836 143.863l0.144-0.138zM801.792 171.008c74.164 74.164 120.036 176.621 120.036 289.792 0 226.342-183.486 409.828-409.828 409.828-113.171 0-215.628-45.872-289.792-120.036v0c-74.164-74.164-120.036-176.621-120.036-289.792 0-226.342 183.486-409.828 409.828-409.828 113.171 0 215.628 45.872 289.792 120.036v0zM460.8 716.8h102.4v-307.2h-102.4v307.2zM460.8 307.2h102.4v-102.4h-102.4v102.4z" />
<glyph unicode="&#xe975;" glyph-name="exclamation-solid" d="M150.016 98.816c-96.436 93.233-156.308 223.762-156.308 368.276 0 282.77 229.23 512 512 512 144.514 0 275.043-59.872 368.137-156.164l0.138-0.144c88.925-91.979 143.724-217.436 143.724-355.692 0-282.77-229.23-512-512-512-138.256 0-263.713 54.799-355.836 143.863l0.144-0.138zM460.8 716.8v-307.2h102.4v307.2h-102.4zM460.8 307.2v-102.4h102.4v102.4h-102.4z" />
<glyph unicode="&#xe976;" glyph-name="explore" d="M512-51.2c-282.77 0-512 229.23-512 512s229.23 512 512 512v0c282.77 0 512-229.23 512-512s-229.23-512-512-512v0zM403.456 569.344l-181.248-398.336 398.336 181.248 181.248 398.336-398.336-181.248zM512 409.6c-28.277 0-51.2 22.923-51.2 51.2s22.923 51.2 51.2 51.2v0c28.277 0 51.2-22.923 51.2-51.2s-22.923-51.2-51.2-51.2v0z" />
<glyph unicode="&#xe977;" glyph-name="factory" d="M537.6-51.2h-537.6v665.6l256-170.496v170.496l256-170.496v170.496l256-170.496v528.896h256v-1024h-486.4z" />
<glyph unicode="&#xe978;" glyph-name="fast-forward" d="M51.2 716.8l460.8-256-460.8-256v512zM512 716.8l460.8-256-460.8-256v512z" />
<glyph unicode="&#xe979;" glyph-name="fast-rewind" d="M972.8 716.8v-512l-460.8 256 460.8 256zM512 716.8v-512l-460.8 256 460.8 256z" />
<glyph unicode="&#xe97a;" glyph-name="film" d="M0 768c0 56.32 46.080 102.4 102.4 102.4h819.2c56.554 0 102.4-45.846 102.4-102.4v0-614.4c0-56.554-45.846-102.4-102.4-102.4v0h-819.2c-56.554 0-102.4 45.846-102.4 102.4v0 614.4zM307.2 768v-614.4h409.6v614.4h-409.6zM102.4 716.8v-102.4h102.4v102.4h-102.4zM102.4 512v-102.4h102.4v102.4h-102.4zM102.4 307.2v-102.4h102.4v102.4h-102.4zM819.2 716.8v-102.4h102.4v102.4h-102.4zM819.2 512v-102.4h102.4v102.4h-102.4zM819.2 307.2v-102.4h102.4v102.4h-102.4zM409.6 614.4l256-153.6-256-153.6v307.2z" />
<glyph unicode="&#xe97b;" glyph-name="filter" d="M614.4 358.4l409.6 409.6v204.8h-1024v-204.8l409.6-409.6v-409.6l204.8 204.8v204.8z" />
<glyph unicode="&#xe97c;" glyph-name="flag" d="M392.55 358.4h-290.15v-409.6h-102.4v1024h614.4l17.050-102.4h392.55l-153.6-307.2 153.6-307.2h-614.4l-17.050 102.4z" />
<glyph unicode="&#xe97d;" glyph-name="flashlight" d="M665.6 614.4v-563.2c0-56.554-45.846-102.4-102.4-102.4v0h-102.4c-56.554 0-102.4 45.846-102.4 102.4v0 563.2l-102.4 102.4v102.4h512v-102.4l-102.4-102.4zM460.8 563.2v-51.2c0-28.277 22.923-51.2 51.2-51.2s51.2 22.923 51.2 51.2v0 51.2c0 28.277-22.923 51.2-51.2 51.2s-51.2-22.923-51.2-51.2v0zM256 972.8h512v-102.4h-512v102.4z" />
<glyph unicode="&#xe97e;" glyph-name="folder" d="M0 768c0 56.32 46.080 102.4 102.4 102.4h358.4l102.4-102.4h358.4c56.554 0 102.4-45.846 102.4-102.4v0-512c0-56.554-45.846-102.4-102.4-102.4v0h-819.2c-56.554 0-102.4 45.846-102.4 102.4v0 614.4z" />
<glyph unicode="&#xe97f;" glyph-name="folder-outline" d="M0 768c0 56.32 46.080 102.4 102.4 102.4h358.4l102.4-102.4h358.4c56.554 0 102.4-45.846 102.4-102.4v0-512c0-56.554-45.846-102.4-102.4-102.4v0h-819.2c-56.554 0-102.4 45.846-102.4 102.4v0 614.4zM102.4 665.6v-512h819.2v512h-819.2z" />
<glyph unicode="&#xe980;" glyph-name="folder-outline-add" d="M0 768c0 56.32 46.080 102.4 102.4 102.4h358.4l102.4-102.4h358.4c56.554 0 102.4-45.846 102.4-102.4v0-512c0-56.554-45.846-102.4-102.4-102.4v0h-819.2c-56.554 0-102.4 45.846-102.4 102.4v0 614.4zM102.4 665.6v-512h819.2v512h-819.2zM460.8 460.8v102.4h102.4v-102.4h102.4v-102.4h-102.4v-102.4h-102.4v102.4h-102.4v102.4h102.4z" />
<glyph unicode="&#xe981;" glyph-name="format-bold" d="M153.6 0v921.6h409.6c0.079 0 0.171 0 0.264 0 141.385 0 256-114.615 256-256 0-61.578-21.741-118.077-57.966-162.242l0.358 0.45c66.369-52.013 108.62-132.176 108.62-222.208 0-155.523-126.077-281.6-281.6-281.6-0.027 0-0.054 0-0.080 0h-435.195zM537.6 409.6h-179.2v-256h179.2c70.692 0 128 57.308 128 128s-57.308 128-128 128v0zM358.4 768v-204.8h153.6c56.554 0 102.4 45.846 102.4 102.4s-45.846 102.4-102.4 102.4v0h-153.6z" />
<glyph unicode="&#xe982;" glyph-name="format-font-size" d="M819.2 512v-409.6h-102.4v409.6h-204.8v102.4h512v-102.4h-204.8zM409.6 716.8v-614.4h-102.4v614.4h-307.2v102.4h768v-102.4h-358.4z" />
<glyph unicode="&#xe983;" glyph-name="format-italic" d="M409.6 921.6h460.8v-102.4h-460.8v102.4zM563.2 819.2h153.6l-307.2-716.8h-153.6l307.2 716.8zM102.4 102.4h460.8v-102.4h-460.8v102.4z" />
<glyph unicode="&#xe984;" glyph-name="format-text-size" d="M819.2 512v-409.6h-102.4v409.6h-204.8v102.4h512v-102.4h-204.8zM409.6 716.8v-614.4h-102.4v614.4h-307.2v102.4h768v-102.4h-358.4z" />
<glyph unicode="&#xe985;" glyph-name="format-underline" d="M819.2 512c0-169.662-137.538-307.2-307.2-307.2s-307.2 137.538-307.2 307.2v0 409.6h153.6v-409.6c0-84.831 68.769-153.6 153.6-153.6s153.6 68.769 153.6 153.6v0 409.6h153.6v-409.6zM102.4 102.4h819.2v-102.4h-819.2v102.4z" />
<glyph unicode="&#xe986;" glyph-name="forward" d="M51.2 716.8l460.8-256-460.8-256v512zM512 716.8l460.8-256-460.8-256v512z" />
<glyph unicode="&#xe987;" glyph-name="forward-step" d="M665.6 716.8h153.6v-512h-153.6v512zM204.8 716.8l460.8-256-460.8-256v512z" />
<glyph unicode="&#xe988;" glyph-name="gift" d="M759.296 768h264.704v-307.2h-51.2v-512h-921.6v512h-51.2v307.2h264.704c-5.655 15.36-8.927 33.099-8.927 51.601 0 84.831 68.769 153.6 153.6 153.6 39.514 0 75.544-14.921 102.761-39.436l-0.138 0.122c27.079 24.392 63.109 39.313 102.623 39.313 84.831 0 153.6-68.769 153.6-153.6 0-18.503-3.272-36.241-9.268-52.669l0.341 1.067zM409.6 460.8h-256v-409.6h256v409.6zM614.4 460.8v-409.6h256v409.6h-256zM409.6 665.6h-307.2v-102.4h307.2v102.4zM614.4 665.6v-102.4h307.2v102.4h-307.2zM409.6 768c28.277 0 51.2 22.923 51.2 51.2s-22.923 51.2-51.2 51.2v0c-28.277 0-51.2-22.923-51.2-51.2s22.923-51.2 51.2-51.2v0zM614.4 768c28.277 0 51.2 22.923 51.2 51.2s-22.923 51.2-51.2 51.2v0c-28.277 0-51.2-22.923-51.2-51.2s22.923-51.2 51.2-51.2v0z" />
<glyph unicode="&#xe989;" glyph-name="globe" d="M512-51.2c-282.77 0-512 229.23-512 512s229.23 512 512 512v0c282.77 0 512-229.23 512-512s-229.23-512-512-512v0zM614.4 64c82.026 21.708 151.768 65.885 204.417 125.51l0.383 0.442v322.048c-56.554 0-102.4 45.846-102.4 102.4v0 201.216c-44.233 25.902-96.181 44.019-151.598 50.994l-2.002 0.206v-47.616c0-56.554-45.846-102.4-102.4-102.4v0-51.2c0-56.554-45.846-102.4-102.4-102.4v0-102.4h153.6c56.554 0 102.4-45.846 102.4-102.4v0-294.4zM409.6 64v140.8c-56.554 0-102.4 45.846-102.4 102.4v0 51.2h-25.6c-42.415 0-76.8 34.385-76.8 76.8v0 128h-89.6c-8.214-30.664-12.932-65.869-12.932-102.176 0-189.972 129.168-349.776 304.469-396.377l2.863-0.647z" />
<glyph unicode="&#xe98a;" glyph-name="hand-stop" d="M870.4 153.6c0-113.108-91.692-204.8-204.8-204.8v0h-307.2c0 0 0 0-0.001 0-113.108 0-204.8 91.692-204.8 204.8 0 0.18 0 0.36 0.001 0.54v-0.028 613.888c0 28.277 22.923 51.2 51.2 51.2v0c28.277 0 51.2-22.923 51.2-51.2v0-307.2h51.2v409.6c0 28.277 22.923 51.2 51.2 51.2v0c28.277 0 51.2-22.923 51.2-51.2v0-409.6h51.2v460.8c0 28.277 22.923 51.2 51.2 51.2s51.2-22.923 51.2-51.2v0-460.8h51.2v409.6c0 28.277 22.923 51.2 51.2 51.2v0c28.277 0 51.2-22.923 51.2-51.2v0-665.6h51.2v307.2c0 28.277 22.923 51.2 51.2 51.2v0h51.2v-409.6z" />
<glyph unicode="&#xe98b;" glyph-name="hard-drive" d="M102.4 870.4c0 56.32 46.080 102.4 102.4 102.4h614.4c56.554 0 102.4-45.846 102.4-102.4v0-819.2c0-56.554-45.846-102.4-102.4-102.4v0h-614.4c-56.554 0-102.4 45.846-102.4 102.4v0 819.2zM634.88 583.68c-35.473 19.776-77.816 31.419-122.879 31.419-141.385 0-256-114.615-256-256s114.615-256 256-256c141.139 0 255.602 114.217 255.999 255.263v358.438l-133.12-133.12zM512 256c-56.554 0-102.4 45.846-102.4 102.4s45.846 102.4 102.4 102.4v0c56.554 0 102.4-45.846 102.4-102.4s-45.846-102.4-102.4-102.4v0zM307.2 819.2v-102.4h204.8v102.4h-204.8zM204.8 819.2c28.277 0 51.2 22.923 51.2 51.2s-22.923 51.2-51.2 51.2v0c-28.277 0-51.2-22.923-51.2-51.2s22.923-51.2 51.2-51.2v0zM204.8 0c28.277 0 51.2 22.923 51.2 51.2s-22.923 51.2-51.2 51.2v0c-28.277 0-51.2-22.923-51.2-51.2s22.923-51.2 51.2-51.2v0zM819.2 0c28.277 0 51.2 22.923 51.2 51.2s-22.923 51.2-51.2 51.2v0c-28.277 0-51.2-22.923-51.2-51.2s22.923-51.2 51.2-51.2v0zM819.2 819.2c28.277 0 51.2 22.923 51.2 51.2s-22.923 51.2-51.2 51.2v0c-28.277 0-51.2-22.923-51.2-51.2s22.923-51.2 51.2-51.2v0z" />
<glyph unicode="&#xe98c;" glyph-name="headphones" d="M819.2 563.2c0 169.662-137.538 307.2-307.2 307.2s-307.2-137.538-307.2-307.2v0-563.2h-102.4c-56.554 0-102.4 45.846-102.4 102.4v0 204.8c0 56.554 45.846 102.4 102.4 102.4v0 153.6c0 226.216 183.384 409.6 409.6 409.6s409.6-183.384 409.6-409.6v0-153.6c56.554 0 102.4-45.846 102.4-102.4v0-204.8c0-56.554-45.846-102.4-102.4-102.4v0h-102.4v563.2zM614.4 460.8h153.6v-512h-153.6v512zM256 460.8h153.6v-512h-153.6v512z" />
<glyph unicode="&#xe98d;" glyph-name="heart" d="M512 807.936l-31.232 30.72c-50.338 47.679-118.487 76.997-193.485 76.997-155.523 0-281.6-126.077-281.6-281.6 0-74.87 29.219-142.916 76.875-193.356l-0.126 0.135 429.568-429.568 429.568 430.080c47.53 50.306 76.749 118.352 76.749 193.221 0 155.523-126.077 281.6-281.6 281.6-74.997 0-143.147-29.318-193.613-77.118l0.129 0.121-31.232-31.232z" />
<glyph unicode="&#xe98e;" glyph-name="home" d="M409.6-51.2h-256v512h-153.6l512 512 512-512h-153.6v-512h-256v307.2h-204.8v-307.2z" />
<glyph unicode="&#xe98f;" glyph-name="hot" d="M512 972.8s409.6-388.096 409.6-614.4c0-226.216-183.384-409.6-409.6-409.6s-409.6 183.384-409.6 409.6v0c0 76.8 46.592 171.52 108.544 263.68 19.228-64.429 77.951-110.595 147.457-110.595 84.831 0 153.6 68.769 153.6 153.6 0 0.181 0 0.362-0.001 0.543v-0.028 307.2zM409.6 972.8c-84.831 0-153.6-68.769-153.6-153.6s68.769-153.6 153.6-153.6v0 307.2z" />
<glyph unicode="&#xe990;" glyph-name="hour-glass" d="M153.6 51.2c0 0.083 0 0.181 0 0.279 0 142.127 82.729 264.931 202.66 322.885l2.141 0.933v171.008c-122.071 58.886-204.8 181.69-204.8 323.817 0 0.098 0 0.196 0 0.294v-0.015h-102.4v102.4h921.6v-102.4h-102.4c0-0.083 0-0.181 0-0.279 0-142.127-82.729-264.931-202.66-322.885l-2.141-0.933v-171.008c122.071-58.886 204.8-181.69 204.8-323.817 0-0.098 0-0.196 0-0.294v0.015h102.4v-102.4h-921.6v102.4h102.4zM256 870.4c0-0.015 0-0.034 0-0.052 0-123.261 87.114-226.175 203.133-250.535l1.667-0.293v-158.72h102.4v158.72c117.686 24.652 204.8 127.567 204.8 250.828 0 0.018 0 0.037 0 0.055v-0.003h-512z" />
<glyph unicode="&#xe991;" glyph-name="inbox" d="M0 870.4c0 56.32 46.080 102.4 102.4 102.4h819.2c56.554 0 102.4-45.846 102.4-102.4v0-819.2c0-56.554-45.846-102.4-102.4-102.4v0h-819.2c-56.554 0-102.4 45.846-102.4 102.4v0 819.2zM716.8 256h204.8v614.4h-819.2v-614.4h204.8c0-56.32 46.080-102.4 102.4-102.4h204.8c56.554 0 102.4 45.846 102.4 102.4v0z" />
<glyph unicode="&#xe992;" glyph-name="inbox-check" d="M0 870.4c0 56.32 46.080 102.4 102.4 102.4h819.2c56.554 0 102.4-45.846 102.4-102.4v0-819.2c0-56.554-45.846-102.4-102.4-102.4v0h-819.2c-56.554 0-102.4 45.846-102.4 102.4v0 819.2zM716.8 256h204.8v614.4h-819.2v-614.4h204.8c0-56.32 46.080-102.4 102.4-102.4h204.8c56.554 0 102.4 45.846 102.4 102.4v0zM256 512l102.4 102.4 102.4-102.4 204.8 204.8 102.4-102.4-307.2-307.2-204.8 204.8z" />
<glyph unicode="&#xe993;" glyph-name="inbox-download" d="M0 870.4c0 56.32 46.080 102.4 102.4 102.4h819.2c56.554 0 102.4-45.846 102.4-102.4v0-819.2c0-56.554-45.846-102.4-102.4-102.4v0h-819.2c-56.554 0-102.4 45.846-102.4 102.4v0 819.2zM716.8 256h204.8v614.4h-819.2v-614.4h204.8c0-56.32 46.080-102.4 102.4-102.4h204.8c56.554 0 102.4 45.846 102.4 102.4v0zM460.8 563.2v153.6h102.4v-153.6h153.6l-204.8-204.8-204.8 204.8h153.6z" />
<glyph unicode="&#xe994;" glyph-name="inbox-full" d="M716.8 256h204.8v614.4h-819.2v-614.4h204.8c0-56.32 46.080-102.4 102.4-102.4h204.8c56.554 0 102.4 45.846 102.4 102.4v0zM0 870.4c0 56.32 46.080 102.4 102.4 102.4h819.2c56.554 0 102.4-45.846 102.4-102.4v0-819.2c0-56.554-45.846-102.4-102.4-102.4v0h-819.2c-56.554 0-102.4 45.846-102.4 102.4v0 819.2zM204.8 768h614.4v-102.4h-614.4v102.4zM204.8 614.4h614.4v-102.4h-614.4v102.4zM204.8 460.8h614.4v-102.4h-614.4v102.4z" />
<glyph unicode="&#xe995;" glyph-name="indent-decrease" d="M51.2 921.6h921.6v-102.4h-921.6v102.4zM358.4 512h614.4v-102.4h-614.4v102.4zM51.2 102.4h921.6v-102.4h-921.6v102.4zM358.4 716.8h614.4v-102.4h-614.4v102.4zM358.4 307.2h614.4v-102.4h-614.4v102.4zM256 665.6v-409.6l-204.8 204.8 204.8 204.8z" />
<glyph unicode="&#xe996;" glyph-name="indent-increase" d="M51.2 921.6h921.6v-102.4h-921.6v102.4zM358.4 512h614.4v-102.4h-614.4v102.4zM51.2 102.4h921.6v-102.4h-921.6v102.4zM358.4 716.8h614.4v-102.4h-614.4v102.4zM358.4 307.2h614.4v-102.4h-614.4v102.4zM51.2 665.6l204.8-204.8-204.8-204.8v409.6z" />
<glyph unicode="&#xe997;" glyph-name="information-outline" d="M150.016 98.816c-96.436 93.233-156.308 223.762-156.308 368.276 0 282.77 229.23 512 512 512 144.514 0 275.043-59.872 368.137-156.164l0.138-0.144c88.925-91.979 143.724-217.436 143.724-355.692 0-282.77-229.23-512-512-512-138.256 0-263.713 54.799-355.836 143.863l0.144-0.138zM801.792 171.008c74.164 74.164 120.036 176.621 120.036 289.792 0 226.342-183.486 409.828-409.828 409.828-113.171 0-215.628-45.872-289.792-120.036v0c-74.164-74.164-120.036-176.621-120.036-289.792 0-226.342 183.486-409.828 409.828-409.828 113.171 0 215.628 45.872 289.792 120.036v0zM460.8 409.6v102.4h102.4v-307.2h-102.4v204.8zM460.8 716.8h102.4v-102.4h-102.4v102.4z" />
<glyph unicode="&#xe998;" glyph-name="information-solid" d="M150.016 98.816c-96.436 93.233-156.308 223.762-156.308 368.276 0 282.77 229.23 512 512 512 144.514 0 275.043-59.872 368.137-156.164l0.138-0.144c88.925-91.979 143.724-217.436 143.724-355.692 0-282.77-229.23-512-512-512-138.256 0-263.713 54.799-355.836 143.863l0.144-0.138zM460.8 409.6v-204.8h102.4v307.2h-102.4v-102.4zM460.8 716.8v-102.4h102.4v102.4h-102.4z" />
<glyph unicode="&#xe999;" glyph-name="key" d="M627.712 371.712l-115.712-115.712h-102.4v-102.4h-102.4v-102.4l-102.4-102.4h-204.8v204.8l422.912 422.912c-8.392 26.681-13.227 57.362-13.227 89.173 0 169.662 137.538 307.2 307.2 307.2s307.2-137.538 307.2-307.2c0-169.662-137.538-307.2-307.2-307.2-31.811 0-62.492 4.835-91.349 13.81l2.176-0.583zM876.544 608.256c27.756 27.789 44.921 66.162 44.921 108.544 0 84.783-68.692 153.523-153.457 153.6h-0.007c-42.4-0.038-80.772-17.251-108.542-45.054l-0.002-0.002 217.088-217.088z" />
<glyph unicode="&#xe99a;" glyph-name="keyboard" d="M0 665.6c0 56.32 46.080 102.4 102.4 102.4h819.2c56.554 0 102.4-45.846 102.4-102.4v0-409.6c0-56.554-45.846-102.4-102.4-102.4v0h-819.2c-56.554 0-102.4 45.846-102.4 102.4v0 409.6zM102.4 665.6v-102.4h102.4v102.4h-102.4zM153.6 512v-102.4h102.4v102.4h-102.4zM102.4 358.4v-102.4h102.4v102.4h-102.4zM256 358.4v-102.4h512v102.4h-512zM819.2 358.4v-102.4h102.4v102.4h-102.4zM307.2 512v-102.4h102.4v102.4h-102.4zM460.8 512v-102.4h102.4v102.4h-102.4zM614.4 512v-102.4h102.4v102.4h-102.4zM768 512v-102.4h102.4v102.4h-102.4zM256 665.6v-102.4h102.4v102.4h-102.4zM409.6 665.6v-102.4h102.4v102.4h-102.4zM563.2 665.6v-102.4h102.4v102.4h-102.4zM716.8 665.6v-102.4h204.8v102.4h-204.8z" />
<glyph unicode="&#xe99b;" glyph-name="layers" d="M512 921.6l512-307.2-512-307.2-512 307.2 512 307.2zM853.504 409.6l170.496-102.4-512-307.2-512 307.2 170.496 102.4 341.504-204.8 341.504 204.8z" />
<glyph unicode="&#xe99c;" glyph-name="library" d="M0 665.6l512 307.2 512-307.2v-102.4h-1024v102.4zM0 51.2h1024v-102.4h-1024v102.4zM102.4 153.6h819.2v-102.4h-819.2v102.4zM102.4 563.2h204.8v-409.6h-204.8v409.6zM409.6 563.2h204.8v-409.6h-204.8v409.6zM716.8 563.2h204.8v-409.6h-204.8v409.6z" />
<glyph unicode="&#xe99d;" glyph-name="light-bulb" d="M358.4 290.304c-122.070 58.886-204.8 181.69-204.8 323.817 0 197.939 160.461 358.4 358.4 358.4s358.4-160.461 358.4-358.4c0-142.127-82.729-264.931-202.66-322.885l-2.14-0.933v-136.704h-307.2v136.704zM358.4 102.4h307.2v-76.8c0-42.496-34.304-76.8-76.8-76.8h-153.6c-42.415 0-76.8 34.385-76.8 76.8v0 76.8zM460.8 363.52v-107.52h102.4v107.52c117.686 24.652 204.8 127.567 204.8 250.828 0 141.385-114.615 256-256 256s-256-114.615-256-256c0-123.261 87.114-226.176 203.133-250.535l1.667-0.293z" />
<glyph unicode="&#xe99e;" glyph-name="link" d="M474.112 307.2c-8.559 14.643-13.613 32.239-13.613 51.016 0 19.135 5.248 37.044 14.384 52.366l-0.259-0.469c79.299 6.646 141.144 72.648 141.144 153.094 0 84.831-68.769 153.6-153.6 153.6-0.481 0-0.961-0.002-1.441-0.007l0.073 0.001h-204.8c-84.831 0-153.6-68.769-153.6-153.6s68.769-153.6 153.6-153.6v0h4.096c-2.706-15.393-4.254-33.116-4.254-51.2s1.547-35.807 4.516-53.044l-0.263 1.844h-4.096c-141.385 0-256 114.615-256 256s114.615 256 256 256v0h204.8c1.982 0.055 4.315 0.087 6.656 0.087 141.433 0 256.087-114.654 256.087-256.087 0-139.092-110.89-252.284-249.087-255.993l-0.343-0.007zM549.888 614.4c8.559-14.643 13.613-32.239 13.613-51.016 0-19.135-5.248-37.044-14.384-52.366l0.259 0.469c-79.299-6.646-141.144-72.648-141.144-153.094 0-84.831 68.769-153.6 153.6-153.6 0.481 0 0.961 0.002 1.441 0.007l-0.073-0.001h204.8c84.831 0 153.6 68.769 153.6 153.6s-68.769 153.6-153.6 153.6v0h-4.096c2.706 15.393 4.254 33.116 4.254 51.2s-1.547 35.807-4.516 53.044l0.263-1.844h4.096c141.385 0 256-114.615 256-256s-114.615-256-256-256v0h-204.8c-1.982-0.055-4.315-0.087-6.656-0.087-141.433 0-256.087 114.654-256.087 256.087 0 139.092 110.89 252.284 249.087 255.993l0.343 0.007z" />
<glyph unicode="&#xe99f;" glyph-name="list" d="M51.2 768h102.4v-102.4h-102.4v102.4zM256 768h716.8v-102.4h-716.8v102.4zM51.2 512h102.4v-102.4h-102.4v102.4zM256 512h716.8v-102.4h-716.8v102.4zM51.2 256h102.4v-102.4h-102.4v102.4zM256 256h716.8v-102.4h-716.8v102.4z" />
<glyph unicode="&#xe9a0;" glyph-name="list-add" d="M768 512h-153.6v-102.4h153.6v-153.6h102.4v153.6h153.6v102.4h-153.6v153.6h-102.4v-153.6zM0 819.2h512v-102.4h-512v102.4zM0 409.6h512v-102.4h-512v102.4zM0 614.4h512v-102.4h-512v102.4zM0 204.8h512v-102.4h-512v102.4z" />
<glyph unicode="&#xe9a1;" glyph-name="list-bullet" d="M51.2 768h102.4v-102.4h-102.4v102.4zM256 768h716.8v-102.4h-716.8v102.4zM51.2 512h102.4v-102.4h-102.4v102.4zM256 512h716.8v-102.4h-716.8v102.4zM51.2 256h102.4v-102.4h-102.4v102.4zM256 256h716.8v-102.4h-716.8v102.4z" />
<glyph unicode="&#xe9a2;" glyph-name="load-balancer" d="M870.4 358.4h-307.2v-204.8h51.2v-204.8h-204.8v204.8h51.2v204.8h-307.2v-204.8h51.2v-204.8h-204.8v204.8h51.2v204.8c0 56.554 45.846 102.4 102.4 102.4v0h307.2v204.8h-102.4v307.2h307.2v-307.2h-102.4v-204.8h307.2c56.554 0 102.4-45.846 102.4-102.4v0-204.8h51.2v-204.8h-204.8v204.8h51.2v204.8z" />
<glyph unicode="&#xe9a3;" glyph-name="location" d="M512-51.2s-358.4 467.456-358.4 665.6c0 197.939 160.461 358.4 358.4 358.4s358.4-160.461 358.4-358.4v0c0-198.144-358.4-665.6-358.4-665.6zM512 512c56.554 0 102.4 45.846 102.4 102.4s-45.846 102.4-102.4 102.4v0c-56.554 0-102.4-45.846-102.4-102.4s45.846-102.4 102.4-102.4v0z" />
<glyph unicode="&#xe9a4;" glyph-name="location-current" d="M0 972.8l1024-409.6-409.6-204.8-102.4-409.6z" />
<glyph unicode="&#xe9a5;" glyph-name="location-food" d="M921.6 409.6v-358.4c0-56.554-45.846-102.4-102.4-102.4s-102.4 45.846-102.4 102.4v0 256h-102.4v512c0 84.831 68.769 153.6 153.6 153.6v0h153.6v-563.2zM204.8 460.8c-56.554 0-102.4 45.846-102.4 102.4v0 358.4c0 28.277 22.923 51.2 51.2 51.2s51.2-22.923 51.2-51.2v0-204.8h51.2v204.8c0 28.277 22.923 51.2 51.2 51.2s51.2-22.923 51.2-51.2v0-204.8h51.2v204.8c0 28.277 22.923 51.2 51.2 51.2s51.2-22.923 51.2-51.2v0-358.4c0-56.554-45.846-102.4-102.4-102.4v0-409.6c0-56.554-45.846-102.4-102.4-102.4s-102.4 45.846-102.4 102.4v0 409.6z" />
<glyph unicode="&#xe9a6;" glyph-name="location-gas-station" d="M665.6 51.2h51.2v-102.4h-716.8v102.4h51.2v819.2c0 56.32 46.080 102.4 102.4 102.4h409.6c56.554 0 102.4-45.846 102.4-102.4v0-819.2zM153.6 870.4v-307.2h409.6v307.2h-409.6zM665.6 460.8h51.2c56.554 0 102.4-45.846 102.4-102.4v0-153.6c0-28.277 22.923-51.2 51.2-51.2s51.2 22.923 51.2 51.2v0 256l-102.4 102.4v102.4l-102.4 102.4 51.2 51.2 256-256v-358.4c0-84.831-68.769-153.6-153.6-153.6s-153.6 68.769-153.6 153.6v0 153.6h-51.2v102.4z" />
<glyph unicode="&#xe9a7;" glyph-name="location-hotel" d="M102.4 358.4h921.6v-307.2h-102.4v102.4h-819.2v-102.4h-102.4v819.2h102.4v-512zM512 665.6h409.6c56.554 0 102.4-45.846 102.4-102.4v0-153.6h-512v256zM307.2 409.6c-84.831 0-153.6 68.769-153.6 153.6s68.769 153.6 153.6 153.6v0c84.831 0 153.6-68.769 153.6-153.6s-68.769-153.6-153.6-153.6v0z" />
<glyph unicode="&#xe9a8;" glyph-name="location-marina" d="M409.6 876.544v96.256h102.4v-819.2h512l-204.8-204.8h-716.8l-102.4 204.8h409.6v102.4h-409.6v13.312c191.289 154.050 334.286 360.961 407.295 598.516l2.305 8.716zM1022.464 256h-510.464v18.432c64.675 95.476 103.25 213.217 103.25 339.968s-38.575 244.491-104.624 342.124l1.375-2.156v10.24c287.162-118.518 489.775-387.566 510.339-706.195l0.125-2.413z" />
<glyph unicode="&#xe9a9;" glyph-name="location-park" d="M272.896 318.976c-21.001-7.96-45.282-12.568-70.64-12.568-113.108 0-204.8 91.692-204.8 204.8 0 95.835 65.826 176.296 154.731 198.636l1.413 0.301v6.656c0 0.060 0 0.131 0 0.202 0 113.108 91.692 204.8 204.8 204.8 31.807 0 61.921-7.251 88.778-20.19l-1.226 0.533c33.060 43.309 84.712 70.97 142.825 70.97 90.776 0 165.788-67.496 177.585-155.040l0.102-0.922c53.149-10.48 94.016-52.73 102.307-105.775l0.093-0.721c89.483-23.236 154.488-103.288 154.488-198.524 0-113.108-91.692-204.8-204.8-204.8-31.953 0-62.198 7.318-89.148 20.369l1.221-0.533c-27.722-44.505-67.413-79.253-114.587-100.214l-1.637-0.65v-175.104l102.4-51.2v-51.2h-409.6v51.2l102.4 51.2v153.6l-136.704 114.176zM256 460.8l153.6-153.6v153.6h-153.6z" />
<glyph unicode="&#xe9aa;" glyph-name="location-restroom" d="M614.4 153.6h-153.6l102.4 230.4v128c0 56.32 46.080 102.4 102.4 102.4h102.4c56.554 0 102.4-45.846 102.4-102.4v0-128l102.4-230.4h-153.6v-204.8h-204.8v204.8zM358.4 307.2h102.4v204.8c0 56.554-45.846 102.4-102.4 102.4v0h-204.8c-56.554 0-102.4-45.846-102.4-102.4v0-204.8h102.4v-358.4h204.8v358.4zM256 665.6c-84.831 0-153.6 68.769-153.6 153.6s68.769 153.6 153.6 153.6v0c84.831 0 153.6-68.769 153.6-153.6s-68.769-153.6-153.6-153.6v0zM716.8 665.6c-84.831 0-153.6 68.769-153.6 153.6s68.769 153.6 153.6 153.6v0c84.831 0 153.6-68.769 153.6-153.6s-68.769-153.6-153.6-153.6v0z" />
<glyph unicode="&#xe9ab;" glyph-name="location-shopping" d="M819.2 665.6v-102.4h102.4l102.4-614.4h-1024l102.4 614.4h102.4v102.4c0 169.662 137.538 307.2 307.2 307.2s307.2-137.538 307.2-307.2v0zM716.8 665.6c0 113.108-91.692 204.8-204.8 204.8s-204.8-91.692-204.8-204.8v0-102.4h409.6v102.4zM204.8 460.8v-102.4h102.4v102.4h-102.4zM716.8 460.8v-102.4h102.4v102.4h-102.4z" />
<glyph unicode="&#xe9ac;" glyph-name="lock-closed" d="M204.8 563.2v102.4c0 169.662 137.538 307.2 307.2 307.2s307.2-137.538 307.2-307.2v0-102.4h51.2c56.554 0 102.4-45.846 102.4-102.4v0-409.6c0-56.554-45.846-102.4-102.4-102.4v0h-716.8c-56.554 0-102.4 45.846-102.4 102.4v0 409.6c0 56.32 46.080 102.4 102.4 102.4h51.2zM460.8 218.624v-116.224h102.4v116.224c30.824 18.035 51.2 50.978 51.2 88.681 0 56.554-45.846 102.4-102.4 102.4s-102.4-45.846-102.4-102.4c0-37.703 20.376-70.646 50.717-88.419l0.483-0.262zM358.4 665.6v-102.4h307.2v102.4c0 84.831-68.769 153.6-153.6 153.6s-153.6-68.769-153.6-153.6v0z" />
<glyph unicode="&#xe9ad;" glyph-name="lock-open" d="M204.8 563.2v102.4c0 169.662 137.538 307.2 307.2 307.2s307.2-137.538 307.2-307.2v0h-153.6v-102.4h204.8c56.554 0 102.4-45.846 102.4-102.4v0-409.6c0-56.554-45.846-102.4-102.4-102.4v0h-716.8c-56.554 0-102.4 45.846-102.4 102.4v0 409.6c0 56.32 46.080 102.4 102.4 102.4h51.2zM460.8 218.624v-116.224h102.4v116.224c30.824 18.035 51.2 50.978 51.2 88.681 0 56.554-45.846 102.4-102.4 102.4s-102.4-45.846-102.4-102.4c0-37.703 20.376-70.646 50.717-88.419l0.483-0.262zM358.4 665.6v-102.4h307.2v102.4c0 84.831-68.769 153.6-153.6 153.6s-153.6-68.769-153.6-153.6v0z" />
<glyph unicode="&#xe9ae;" glyph-name="map" d="M0 972.8l307.2-204.8 409.6 204.8 307.2-204.8v-819.2l-307.2 204.8-409.6-204.8-307.2 204.8v819.2zM358.4 665.6v-563.2l307.2 153.6v563.2l-307.2-153.6z" />
<glyph unicode="&#xe9af;" glyph-name="menu" d="M0 819.2h1024v-102.4h-1024v102.4zM0 512h1024v-102.4h-1024v102.4zM0 204.8h1024v-102.4h-1024v102.4z" />
<glyph unicode="&#xe9b0;" glyph-name="mic" d="M460.8 51.2v54.272c-203.112 26.323-358.4 198.221-358.4 406.387 0 0.050 0 0.099 0 0.149v-0.008h102.4c0-169.662 137.538-307.2 307.2-307.2s307.2 137.538 307.2 307.2v0h102.4c0-0.042 0-0.091 0-0.141 0-208.167-155.288-380.064-356.342-406.169l-2.058-0.218v-54.272h153.6v-102.4h-409.6v102.4h153.6zM307.2 768c0 113.108 91.692 204.8 204.8 204.8s204.8-91.692 204.8-204.8v0-256c0-113.108-91.692-204.8-204.8-204.8s-204.8 91.692-204.8 204.8v0 256z" />
<glyph unicode="&#xe9b1;" glyph-name="minus-outline" d="M512-51.2c-282.77 0-512 229.23-512 512s229.23 512 512 512v0c282.77 0 512-229.23 512-512s-229.23-512-512-512v0zM512 51.2c226.216 0 409.6 183.384 409.6 409.6s-183.384 409.6-409.6 409.6v0c-226.216 0-409.6-183.384-409.6-409.6s183.384-409.6 409.6-409.6v0zM768 512v-102.4h-512v102.4h512z" />
<glyph unicode="&#xe9b2;" glyph-name="minus-solid" d="M512-51.2c-282.77 0-512 229.23-512 512s229.23 512 512 512v0c282.77 0 512-229.23 512-512s-229.23-512-512-512v0zM768 512h-512v-102.4h512v102.4z" />
<glyph unicode="&#xe9b3;" glyph-name="mobile-devices" d="M870.4 665.6v51.2h-102.4v153.6h-614.4v-716.8h256v-204.8h153.6c-56.554 0-102.4 45.846-102.4 102.4v0 512c0 56.554 45.846 102.4 102.4 102.4v0h307.2zM576-51.2h-422.4c-56.554 0-102.4 45.846-102.4 102.4v0 819.2c0 56.32 46.080 102.4 102.4 102.4h614.4c56.554 0 102.4-45.846 102.4-102.4v0-204.8c56.554 0 102.4-45.846 102.4-102.4v0-512c0-56.554-45.846-102.4-102.4-102.4v0h-294.4zM563.2 563.2v-409.6h307.2v409.6h-307.2zM716.8 0c28.277 0 51.2 22.923 51.2 51.2s-22.923 51.2-51.2 51.2v0c-28.277 0-51.2-22.923-51.2-51.2s22.923-51.2 51.2-51.2v0z" />
<glyph unicode="&#xe9b4;" glyph-name="mood-happy-outline" d="M512-51.2c-282.77 0-512 229.23-512 512s229.23 512 512 512v0c282.77 0 512-229.23 512-512s-229.23-512-512-512v0zM512 51.2c226.216 0 409.6 183.384 409.6 409.6s-183.384 409.6-409.6 409.6v0c-226.216 0-409.6-183.384-409.6-409.6s183.384-409.6 409.6-409.6v0zM332.8 512c-42.415 0-76.8 34.385-76.8 76.8s34.385 76.8 76.8 76.8v0c42.415 0 76.8-34.385 76.8-76.8s-34.385-76.8-76.8-76.8v0zM691.2 512c-42.415 0-76.8 34.385-76.8 76.8s34.385 76.8 76.8 76.8v0c42.415 0 76.8-34.385 76.8-76.8s-34.385-76.8-76.8-76.8v0zM801.792 358.4c-43.318-120.576-156.666-205.257-289.792-205.257s-246.474 84.68-289.119 203.115l-0.673 2.142h579.584z" />
<glyph unicode="&#xe9b5;" glyph-name="mood-happy-solid" d="M512-51.2c-282.77 0-512 229.23-512 512s229.23 512 512 512v0c282.77 0 512-229.23 512-512s-229.23-512-512-512v0zM332.8 512c42.415 0 76.8 34.385 76.8 76.8s-34.385 76.8-76.8 76.8v0c-42.415 0-76.8-34.385-76.8-76.8s34.385-76.8 76.8-76.8v0zM691.2 512c42.415 0 76.8 34.385 76.8 76.8s-34.385 76.8-76.8 76.8v0c-42.415 0-76.8-34.385-76.8-76.8s34.385-76.8 76.8-76.8v0zM801.792 358.4h-579.584c43.318-120.576 156.666-205.257 289.792-205.257s246.474 84.68 289.119 203.115l0.673 2.142z" />
<glyph unicode="&#xe9b6;" glyph-name="mood-neutral-outline" d="M512-51.2c-282.77 0-512 229.23-512 512s229.23 512 512 512v0c282.77 0 512-229.23 512-512s-229.23-512-512-512v0zM512 51.2c226.216 0 409.6 183.384 409.6 409.6s-183.384 409.6-409.6 409.6v0c-226.216 0-409.6-183.384-409.6-409.6s183.384-409.6 409.6-409.6v0zM332.8 512c-42.415 0-76.8 34.385-76.8 76.8s34.385 76.8 76.8 76.8v0c42.415 0 76.8-34.385 76.8-76.8s-34.385-76.8-76.8-76.8v0zM691.2 512c-42.415 0-76.8 34.385-76.8 76.8s34.385 76.8 76.8 76.8v0c42.415 0 76.8-34.385 76.8-76.8s-34.385-76.8-76.8-76.8v0zM358.4 307.2h307.2c28.277 0 51.2-22.923 51.2-51.2s-22.923-51.2-51.2-51.2v0h-307.2c-28.277 0-51.2 22.923-51.2 51.2s22.923 51.2 51.2 51.2v0z" />
<glyph unicode="&#xe9b7;" glyph-name="mood-neutral-solid" d="M512-51.2c-282.77 0-512 229.23-512 512s229.23 512 512 512v0c282.77 0 512-229.23 512-512s-229.23-512-512-512v0zM332.8 512c42.415 0 76.8 34.385 76.8 76.8s-34.385 76.8-76.8 76.8v0c-42.415 0-76.8-34.385-76.8-76.8s34.385-76.8 76.8-76.8v0zM691.2 512c42.415 0 76.8 34.385 76.8 76.8s-34.385 76.8-76.8 76.8v0c-42.415 0-76.8-34.385-76.8-76.8s34.385-76.8 76.8-76.8v0zM358.4 307.2c-28.277 0-51.2-22.923-51.2-51.2s22.923-51.2 51.2-51.2v0h307.2c28.277 0 51.2 22.923 51.2 51.2s-22.923 51.2-51.2 51.2v0h-307.2z" />
<glyph unicode="&#xe9b8;" glyph-name="mood-sad-outline" d="M512-51.2c-282.77 0-512 229.23-512 512s229.23 512 512 512v0c282.77 0 512-229.23 512-512s-229.23-512-512-512v0zM512 51.2c226.216 0 409.6 183.384 409.6 409.6s-183.384 409.6-409.6 409.6v0c-226.216 0-409.6-183.384-409.6-409.6s183.384-409.6 409.6-409.6v0zM332.8 512c-42.415 0-76.8 34.385-76.8 76.8s34.385 76.8 76.8 76.8v0c42.415 0 76.8-34.385 76.8-76.8s-34.385-76.8-76.8-76.8v0zM691.2 512c-42.415 0-76.8 34.385-76.8 76.8s34.385 76.8 76.8 76.8v0c42.415 0 76.8-34.385 76.8-76.8s-34.385-76.8-76.8-76.8v0zM801.792 204.8h-579.584c43.318 120.576 156.666 205.257 289.792 205.257s246.474-84.68 289.119-203.115l0.673-2.142z" />
<glyph unicode="&#xe9b9;" glyph-name="mood-sad-solid" d="M512-51.2c-282.77 0-512 229.23-512 512s229.23 512 512 512v0c282.77 0 512-229.23 512-512s-229.23-512-512-512v0zM332.8 512c42.415 0 76.8 34.385 76.8 76.8s-34.385 76.8-76.8 76.8v0c-42.415 0-76.8-34.385-76.8-76.8s34.385-76.8 76.8-76.8v0zM691.2 512c42.415 0 76.8 34.385 76.8 76.8s-34.385 76.8-76.8 76.8v0c-42.415 0-76.8-34.385-76.8-76.8s34.385-76.8 76.8-76.8v0zM801.792 204.8c-43.318 120.576-156.666 205.257-289.792 205.257s-246.474-84.68-289.119-203.115l-0.673-2.142h579.584z" />
<glyph unicode="&#xe9ba;" glyph-name="mouse" d="M204.8 512v153.6c0 0.060 0 0.13 0 0.201 0 151.576 109.778 277.512 254.165 302.639l1.835 0.264v-456.704h-256zM204.8 409.6v-153.6c0-169.662 137.538-307.2 307.2-307.2s307.2 137.538 307.2 307.2v0 153.6h-614.4zM819.2 512v153.6c0 0.060 0 0.13 0 0.201 0 151.576-109.778 277.512-254.165 302.639l-1.835 0.264v-456.704h256z" />
<glyph unicode="&#xe9bb;" glyph-name="music-album" d="M0 972.8h1024v-1024h-1024v1024zM512 51.2c226.216 0 409.6 183.384 409.6 409.6s-183.384 409.6-409.6 409.6v0c-226.216 0-409.6-183.384-409.6-409.6s183.384-409.6 409.6-409.6v0zM512 307.2c-84.831 0-153.6 68.769-153.6 153.6s68.769 153.6 153.6 153.6v0c84.831 0 153.6-68.769 153.6-153.6s-68.769-153.6-153.6-153.6v0z" />
<glyph unicode="&#xe9bc;" glyph-name="music-artist" d="M806.4 563.2l-191.488 192c-0.314 4.244-0.493 9.193-0.493 14.184 0 112.825 91.463 204.288 204.288 204.288 56.879 0 108.329-23.246 145.368-60.755l0.021-0.021c37.373-37.113 60.506-88.522 60.506-145.335 0-113.108-91.692-204.8-204.8-204.8-4.715 0-9.394 0.159-14.030 0.473l0.628-0.034zM94.72 189.44l471.040 470.528 144.896-144.896-471.040-471.040-144.384 145.408zM23.040 44.544l108.032 108.544 72.704-72.704-108.544-108.544-72.704 72.704zM512 204.8l102.4 102.4v-358.4h-102.4v256z" />
<glyph unicode="&#xe9bd;" glyph-name="music-notes" d="M1024 844.8v128l-716.8-102.4v-623.104c-15.181 5.515-32.704 8.704-50.972 8.704-0.080 0-0.16 0-0.24 0h-102.388c-84.831 0-153.6-68.769-153.6-153.6s68.769-153.6 153.6-153.6v0h102.4c84.831 0 153.6 68.769 153.6 153.6v0 578.048l512 72.192v-403.456c-15.181 5.515-32.704 8.704-50.972 8.704-0.080 0-0.16 0-0.24 0h-102.388c-84.831 0-153.6-68.769-153.6-153.6s68.769-153.6 153.6-153.6h102.4c84.831 0 153.6 68.769 153.6 153.6v0 640.512z" />
<glyph unicode="&#xe9be;" glyph-name="music-playlist" d="M819.2 102.4c0-84.831-68.769-153.6-153.6-153.6v0h-102.4c-84.831 0-153.6 68.769-153.6 153.6s68.769 153.6 153.6 153.6v0h102.4c0.068 0 0.148 0 0.228 0 18.268 0 35.791-3.189 52.043-9.041l-1.071 0.337v674.304l307.2 51.2v-204.8l-204.8-34.304v-631.296zM0 819.2h614.4v-102.4h-614.4v102.4zM0 614.4h614.4v-102.4h-614.4v102.4zM0 409.6h614.4v-102.4h-614.4v102.4zM0 204.8h307.2v-102.4h-307.2v102.4z" />
<glyph unicode="&#xe9bf;" glyph-name="navigation-more" d="M204.8 358.4c-56.554 0-102.4 45.846-102.4 102.4s45.846 102.4 102.4 102.4v0c56.554 0 102.4-45.846 102.4-102.4s-45.846-102.4-102.4-102.4v0zM512 358.4c-56.554 0-102.4 45.846-102.4 102.4s45.846 102.4 102.4 102.4v0c56.554 0 102.4-45.846 102.4-102.4s-45.846-102.4-102.4-102.4v0zM819.2 358.4c-56.554 0-102.4 45.846-102.4 102.4s45.846 102.4 102.4 102.4v0c56.554 0 102.4-45.846 102.4-102.4s-45.846-102.4-102.4-102.4v0z" />
<glyph unicode="&#xe9c0;" glyph-name="network" d="M512-51.2c-282.77 0-512 229.23-512 512s229.23 512 512 512v0c282.77 0 512-229.23 512-512s-229.23-512-512-512v0zM908.8 358.4c8.251 30.73 12.99 66.012 12.99 102.4s-4.739 71.67-13.634 105.261l0.644-2.861h-195.584c2.267-30.637 3.559-66.368 3.559-102.4s-1.292-71.763-3.832-107.148l0.273 4.748h195.584zM866.816 256h-164.864c-9.503-67.086-26.518-127.646-50.456-184.579l1.816 4.867c91.262 34.305 165.167 97.283 212.455 177.781l1.049 1.931zM413.696 358.4h196.608c2.654 30.668 4.168 66.357 4.168 102.4s-1.513 71.734-4.48 107.010l0.312-4.61h-196.608c-2.654-30.668-4.168-66.357-4.168-102.4s1.513-71.734 4.48-107.010l-0.312 4.61zM426.496 256c20.992-122.88 57.856-204.8 85.504-204.8s64.512 81.92 85.504 204.8h-171.008zM115.2 358.4h195.584c-2.267 30.637-3.559 66.368-3.559 102.4s1.292 71.763 3.832 107.148l-0.273-4.748h-195.584c-8.251-30.73-12.99-66.012-12.99-102.4s4.739-71.67 13.634-105.261l-0.644 2.861zM157.184 256c48.337-82.429 122.242-145.407 210.673-178.775l2.831-0.937c-21.504 49.152-37.888 110.592-48.64 179.712h-164.864zM866.816 665.6c-48.337 82.429-122.242 145.407-210.673 178.775l-2.831 0.937c21.504-49.152 37.888-110.592 48.64-179.712h164.864zM426.496 665.6h171.008c-20.992 122.88-57.856 204.8-85.504 204.8s-64.512-81.92-85.504-204.8zM157.184 665.6h164.864c10.24 69.12 27.136 130.56 48.64 179.712-91.262-34.305-165.167-97.283-212.455-177.781l-1.049-1.931z" />
<glyph unicode="&#xe9c1;" glyph-name="news-paper" d="M819.2 870.4h204.8v-768c0-84.831-68.769-153.6-153.6-153.6v0h-716.8c-84.831 0-153.6 68.769-153.6 153.6v0 870.4h819.2v-102.4zM819.2 768v-665.6c0-28.277 22.923-51.2 51.2-51.2v0c28.277 0 51.2 22.923 51.2 51.2v0 665.6h-102.4zM102.4 870.4v-768c0-28.277 22.923-51.2 51.2-51.2v0h571.904c-5.515 15.127-8.705 32.59-8.705 50.798 0 0.141 0 0.283 0.001 0.424v-0.022 768h-614.4zM204.8 460.8h409.6v-102.4h-409.6v102.4zM204.8 256h409.6v-102.4h-409.6v102.4zM204.8 768h409.6v-204.8h-409.6v204.8z" />
<glyph unicode="&#xe9c2;" glyph-name="notification" d="M204.8 563.2c0 0.040 0 0.087 0 0.135 0 133.528 85.193 247.159 204.189 289.503l2.147 0.666c-0.815 4.852-1.28 10.442-1.28 16.14 0 56.554 45.846 102.4 102.4 102.4s102.4-45.846 102.4-102.4c0-5.699-0.465-11.288-1.361-16.734l0.081 0.593c120.875-43.156 205.824-156.653 205.824-289.991 0-0.11 0-0.22 0-0.33v0.017-307.2l153.6-102.4v-51.2h-921.6v51.2l153.6 102.4v307.2zM614.4 51.2c0-56.554-45.846-102.4-102.4-102.4s-102.4 45.846-102.4 102.4v0h204.8z" />
<glyph unicode="&#xe9c3;" glyph-name="notifications" d="M204.8 563.2c0 0.040 0 0.087 0 0.135 0 133.528 85.193 247.159 204.189 289.503l2.147 0.666c-0.815 4.852-1.28 10.442-1.28 16.14 0 56.554 45.846 102.4 102.4 102.4s102.4-45.846 102.4-102.4c0-5.699-0.465-11.288-1.361-16.734l0.081 0.593c120.875-43.156 205.824-156.653 205.824-289.991 0-0.11 0-0.22 0-0.33v0.017-307.2l153.6-102.4v-51.2h-921.6v51.2l153.6 102.4v307.2zM614.4 51.2c0-56.554-45.846-102.4-102.4-102.4s-102.4 45.846-102.4 102.4v0h204.8z" />
<glyph unicode="&#xe9c4;" glyph-name="notifications-outline" d="M307.2 563.2v-358.4h409.6v358.4c0 113.108-91.692 204.8-204.8 204.8s-204.8-91.692-204.8-204.8v0zM411.136 853.504c-0.815 4.852-1.28 10.442-1.28 16.14 0 56.554 45.846 102.4 102.4 102.4s102.4-45.846 102.4-102.4c0-5.699-0.465-11.288-1.361-16.734l0.081 0.593c120.875-43.156 205.824-156.653 205.824-289.991 0-0.11 0-0.22 0-0.33v0.017-307.2l153.6-102.4v-51.2h-921.6v51.2l153.6 102.4v307.2c0 0.040 0 0.087 0 0.135 0 133.528 85.193 247.159 204.189 289.503l2.147 0.666zM614.4 51.2c0-56.554-45.846-102.4-102.4-102.4s-102.4 45.846-102.4 102.4v0h204.8z" />
<glyph unicode="&#xe9c5;" glyph-name="paste" d="M537.6-51.2h-435.2c-56.554 0-102.4 45.846-102.4 102.4v0 614.4c0 56.32 46.080 102.4 102.4 102.4h51.2v51.2l103.936 20.48c10.988 74.998 74.877 131.932 152.064 131.932s141.076-56.934 151.964-131.098l0.1-0.834 103.936-20.48v-51.2h51.2c56.554 0 102.4-45.846 102.4-102.4v0-51.2h-102.4v51.2h-51.2v-51.2h-512v51.2h-51.2v-614.4h256v-102.4h179.2zM409.6 768c28.277 0 51.2 22.923 51.2 51.2s-22.923 51.2-51.2 51.2v0c-28.277 0-51.2-22.923-51.2-51.2s22.923-51.2 51.2-51.2v0zM512 563.2h409.6c56.554 0 102.4-45.846 102.4-102.4v0-409.6c0-56.554-45.846-102.4-102.4-102.4v0h-409.6c-56.554 0-102.4 45.846-102.4 102.4v0 409.6c0 56.32 46.080 102.4 102.4 102.4zM512 460.8v-409.6h409.6v409.6h-409.6z" />
<glyph unicode="&#xe9c6;" glyph-name="pause" d="M256 768h153.6v-614.4h-153.6v614.4zM614.4 768h153.6v-614.4h-153.6v614.4z" />
<glyph unicode="&#xe9c7;" glyph-name="pause-outline" d="M150.016 98.816c-96.436 93.233-156.308 223.762-156.308 368.276 0 282.77 229.23 512 512 512 144.514 0 275.043-59.872 368.137-156.164l0.138-0.144c88.925-91.979 143.724-217.436 143.724-355.692 0-282.77-229.23-512-512-512-138.256 0-263.713 54.799-355.836 143.863l0.144-0.138zM801.792 171.008c74.164 74.164 120.036 176.621 120.036 289.792 0 226.342-183.486 409.828-409.828 409.828-113.171 0-215.628-45.872-289.792-120.036v0c-74.164-74.164-120.036-176.621-120.036-289.792 0-226.342 183.486-409.828 409.828-409.828 113.171 0 215.628 45.872 289.792 120.036v0zM358.4 665.6h102.4v-409.6h-102.4v409.6zM563.2 665.6h102.4v-409.6h-102.4v409.6z" />
<glyph unicode="&#xe9c8;" glyph-name="pause-solid" d="M150.016 98.816c-96.436 93.233-156.308 223.762-156.308 368.276 0 282.77 229.23 512 512 512 144.514 0 275.043-59.872 368.137-156.164l0.138-0.144c88.925-91.979 143.724-217.436 143.724-355.692 0-282.77-229.23-512-512-512-138.256 0-263.713 54.799-355.836 143.863l0.144-0.138zM358.4 665.6v-409.6h102.4v409.6h-102.4zM563.2 665.6v-409.6h102.4v409.6h-102.4z" />
<glyph unicode="&#xe9c9;" glyph-name="pen-tool" d="M563.2 498.176v474.624l307.2-563.2-204.8-307.2h-307.2l-204.8 307.2 307.2 563.2v-474.624c-30.824-18.035-51.2-50.978-51.2-88.681 0-56.554 45.846-102.4 102.4-102.4s102.4 45.846 102.4 102.4c0 37.703-20.376 70.646-50.717 88.419l-0.483 0.262zM307.2 51.2h409.6v-102.4h-409.6v102.4z" />
<glyph unicode="&#xe9ca;" glyph-name="phone" d="M1024 33.28v-33.28c0-28.277-22.923-51.2-51.2-51.2v0h-102.4c-480.709 0-870.4 389.691-870.4 870.4v0 102.4c0 28.277 22.923 51.2 51.2 51.2v0h204.8c28.277 0 51.2-22.923 51.2-51.2v0-204.8c0-28.672-15.872-67.072-35.84-87.040l-109.568-109.568c77.824-184.32 225.28-331.776 409.6-409.6l108.544 108.544c20.48 20.48 58.88 36.352 87.040 36.352h205.824c28.056-0.29 50.688-23.1 50.688-51.197 0-0.001 0-0.002 0-0.003v0-171.52z" />
<glyph unicode="&#xe9cb;" glyph-name="photo" d="M0 768c0 56.32 46.080 102.4 102.4 102.4h819.2c56.554 0 102.4-45.846 102.4-102.4v0-614.4c0-56.554-45.846-102.4-102.4-102.4v0h-819.2c-56.554 0-102.4 45.846-102.4 102.4v0 614.4zM563.2 307.2l-153.6 153.6-307.2-307.2h819.2l-256 256-102.4-102.4zM768 512c56.554 0 102.4 45.846 102.4 102.4s-45.846 102.4-102.4 102.4v0c-56.554 0-102.4-45.846-102.4-102.4s45.846-102.4 102.4-102.4v0z" />
<glyph unicode="&#xe9cc;" glyph-name="php-elephant" d="M512 358.4v-409.6c-282.636 0.176-511.69 229.339-511.69 512 0 249.529 178.504 457.367 414.783 502.782l3.211 0.514 93.696-93.696h256c0 0 0 0 0.001 0 141.205 0 255.708-114.323 255.999-255.46v-461.852c-0.291-112.887-91.871-204.288-204.799-204.288 0 0 0 0 0 0v0 102.4c56.554 0 102.4 45.846 102.4 102.4s-45.846 102.4-102.4 102.4v0h-204.8l-102.4 102.4zM793.6 512c42.415 0 76.8 34.385 76.8 76.8s-34.385 76.8-76.8 76.8v0c-42.415 0-76.8-34.385-76.8-76.8s34.385-76.8 76.8-76.8v0z" />
<glyph unicode="&#xe9cd;" glyph-name="pin" d="M563.2 358.4h307.2v51.2l-153.6 51.2v409.6l153.6 51.2v51.2h-716.8v-51.2l153.6-51.2v-409.6l-153.6-51.2v-51.2h307.2v-358.4l51.2-51.2 51.2 51.2v358.4z" />
<glyph unicode="&#xe9ce;" glyph-name="play" d="M204.8 768l614.4-307.2-614.4-307.2z" />
<glyph unicode="&#xe9cf;" glyph-name="play-outline" d="M150.016 98.816c-96.436 93.233-156.308 223.762-156.308 368.276 0 282.77 229.23 512 512 512 144.514 0 275.043-59.872 368.137-156.164l0.138-0.144c88.925-91.979 143.724-217.436 143.724-355.692 0-282.77-229.23-512-512-512-138.256 0-263.713 54.799-355.836 143.863l0.144-0.138zM801.792 171.008c74.164 74.164 120.036 176.621 120.036 289.792 0 226.342-183.486 409.828-409.828 409.828-113.171 0-215.628-45.872-289.792-120.036v0c-74.164-74.164-120.036-176.621-120.036-289.792 0-226.342 183.486-409.828 409.828-409.828 113.171 0 215.628 45.872 289.792 120.036v0zM358.4 665.6l409.6-204.8-409.6-204.8v409.6z" />
<glyph unicode="&#xe9d0;" glyph-name="playlist" d="M819.2 102.4c0-84.831-68.769-153.6-153.6-153.6v0h-102.4c-84.831 0-153.6 68.769-153.6 153.6s68.769 153.6 153.6 153.6v0h102.4c0.068 0 0.148 0 0.228 0 18.268 0 35.791-3.189 52.043-9.041l-1.071 0.337v674.304l307.2 51.2v-204.8l-204.8-34.304v-631.296zM0 819.2h614.4v-102.4h-614.4v102.4zM0 614.4h614.4v-102.4h-614.4v102.4zM0 409.6h614.4v-102.4h-614.4v102.4zM0 204.8h307.2v-102.4h-307.2v102.4z" />
<glyph unicode="&#xe9d1;" glyph-name="plugin" d="M1024 256v-204.8c0-56.554-45.846-102.4-102.4-102.4v0h-204.8v102.4c0 56.554-45.846 102.4-102.4 102.4v0c-56.554 0-102.4-45.846-102.4-102.4v0-102.4h-204.8c-56.554 0-102.4 45.846-102.4 102.4v0 204.8h-102.4c-56.554 0-102.4 45.846-102.4 102.4v0c0 56.554 45.846 102.4 102.4 102.4v0h102.4v204.8c0 56.32 46.080 102.4 102.4 102.4h204.8v102.4c0 56.554 45.846 102.4 102.4 102.4v0c56.554 0 102.4-45.846 102.4-102.4v0-102.4h204.8c56.554 0 102.4-45.846 102.4-102.4v0-204.8h-102.4c-56.554 0-102.4-45.846-102.4-102.4v0c0-56.554 45.846-102.4 102.4-102.4v0h102.4z" />
<glyph unicode="&#xe9d2;" glyph-name="portfolio" d="M460.8 358.4h-409.6v-307.2c0-56.554 45.846-102.4 102.4-102.4v0h716.8c56.554 0 102.4 45.846 102.4 102.4v0 307.2h-409.6v-102.4h-102.4v102.4zM460.8 409.6h-460.8v307.2c0 56.32 46.080 102.4 102.4 102.4h204.8v51.2c0 56.554 45.846 102.4 102.4 102.4v0h204.8c56.554 0 102.4-45.846 102.4-102.4v0-51.2h204.8c56.554 0 102.4-45.846 102.4-102.4v0-307.2h-460.8v102.4h-102.4v-102.4zM614.4 819.2v51.2h-204.8v-51.2h204.8z" />
<glyph unicode="&#xe9d3;" glyph-name="printer" d="M204.8 153.6h-204.8v512h1024v-512h-204.8v-204.8h-614.4v204.8zM307.2 358.4v-307.2h409.6v307.2h-409.6zM204.8 972.8h614.4v-256h-614.4v256zM102.4 563.2v-102.4h102.4v102.4h-102.4zM307.2 563.2v-102.4h102.4v102.4h-102.4z" />
<glyph unicode="&#xe9d4;" glyph-name="pylon" d="M890.88 51.2h133.12v-102.4h-1024v102.4h133.12l276.48 921.6h204.8l276.48-921.6zM727.040 256h-430.080l-61.44-204.8h552.96l-61.44 204.8zM604.16 665.6h-184.32l-61.44-204.8h307.2l-61.44 204.8z" />
<glyph unicode="&#xe9d5;" glyph-name="question" d="M512-51.2c-282.77 0-512 229.23-512 512s229.23 512 512 512v0c282.77 0 512-229.23 512-512s-229.23-512-512-512v0zM614.4 614.4c0-14.336-10.752-40.96-21.504-51.2l-80.896-80.896c-29.184-29.696-51.2-81.92-51.2-123.904v-51.2h102.4v51.2c0 14.848 10.752 40.96 21.504 51.2l80.896 80.896c29.184 29.696 51.2 81.92 51.2 123.904 0 113.108-91.692 204.8-204.8 204.8s-204.8-91.692-204.8-204.8v0h102.4c0 56.554 45.846 102.4 102.4 102.4s102.4-45.846 102.4-102.4v0zM460.8 204.8v-102.4h102.4v102.4h-102.4z" />
<glyph unicode="&#xe9d6;" glyph-name="queue" d="M0 870.4h1024v-204.8h-1024v204.8zM0 460.8h1024v-102.4h-1024v102.4zM0 153.6h1024v-102.4h-1024v102.4z" />
<glyph unicode="&#xe9d7;" glyph-name="radar" d="M614.4 460.8c-0.244-56.369-45.996-101.97-102.399-101.97-28.17 0-53.684 11.375-72.198 29.783l0.005-0.005c-18.403 18.509-29.778 44.023-29.778 72.193 0 56.403 45.601 102.155 101.947 102.399h0.023v409.6c0.457 0.001 0.997 0.002 1.538 0.002 281.921 0 510.464-228.543 510.464-510.464 0-0.541-0.001-1.081-0.003-1.621v0.083h-409.6zM1018.88 388.608c-36.607-250.012-249.581-439.814-506.886-439.814-282.77 0-512 229.23-512 512 0 257.305 189.802 470.279 437.036 506.551l2.778 0.335v-103.936c-192.901-35.637-337.081-202.546-337.081-403.129 0-226.216 183.384-409.6 409.6-409.6 200.583 0 367.492 144.18 402.741 334.557l0.388 2.525h103.424zM810.496 388.608c-33.869-135.602-154.622-234.465-298.465-234.465-169.662 0-307.2 137.538-307.2 307.2 0 143.843 98.863 264.596 232.348 298.016l2.117 0.449v-107.52c-77.954-29.963-132.275-104.225-132.275-191.174 0-56.79 23.172-108.167 60.578-145.193l0.017-0.017c37.016-36.79 88.032-59.53 144.359-59.53 87.027 0 161.377 54.282 191.037 130.836l0.476 1.398h107.52z" />
<glyph unicode="&#xe9d8;" glyph-name="radarcopy2" d="M614.4 460.8c-0.244-56.369-45.996-101.97-102.399-101.97-28.17 0-53.684 11.375-72.198 29.783l0.005-0.005c-18.403 18.509-29.778 44.023-29.778 72.193 0 56.403 45.601 102.155 101.947 102.399h0.023v409.6c0.457 0.001 0.997 0.002 1.538 0.002 281.921 0 510.464-228.543 510.464-510.464 0-0.541-0.001-1.081-0.003-1.621v0.083h-409.6zM1018.88 388.608c-36.607-250.012-249.581-439.814-506.886-439.814-282.77 0-512 229.23-512 512 0 257.305 189.802 470.279 437.036 506.551l2.778 0.335v-103.936c-192.901-35.637-337.081-202.546-337.081-403.129 0-226.216 183.384-409.6 409.6-409.6 200.583 0 367.492 144.18 402.741 334.557l0.388 2.525h103.424zM810.496 388.608c-33.869-135.602-154.622-234.465-298.465-234.465-169.662 0-307.2 137.538-307.2 307.2 0 143.843 98.863 264.596 232.348 298.016l2.117 0.449v-107.52c-77.954-29.963-132.275-104.225-132.275-191.174 0-56.79 23.172-108.167 60.578-145.193l0.017-0.017c37.016-36.79 88.032-59.53 144.359-59.53 87.027 0 161.377 54.282 191.037 130.836l0.476 1.398h107.52z" />
<glyph unicode="&#xe9d9;" glyph-name="radio" d="M1024 512v-460.8c0-56.554-45.846-102.4-102.4-102.4v0h-819.2c-56.554 0-102.4 45.846-102.4 102.4v0 512c0 56.32 46.080 102.4 102.4 102.4h706.56l-771.072 206.336 26.624 99.328 959.488-257.536v-201.728zM768 51.2c84.831 0 153.6 68.769 153.6 153.6s-68.769 153.6-153.6 153.6v0c-84.831 0-153.6-68.769-153.6-153.6s68.769-153.6 153.6-153.6v0zM102.4 563.2v-102.4h819.2v102.4h-819.2zM179.2 51.2c42.415 0 76.8 34.385 76.8 76.8s-34.385 76.8-76.8 76.8v0c-42.415 0-76.8-34.385-76.8-76.8s34.385-76.8 76.8-76.8v0zM435.2 51.2c42.415 0 76.8 34.385 76.8 76.8s-34.385 76.8-76.8 76.8v0c-42.415 0-76.8-34.385-76.8-76.8s34.385-76.8 76.8-76.8v0zM768 102.4c-56.554 0-102.4 45.846-102.4 102.4s45.846 102.4 102.4 102.4v0c56.554 0 102.4-45.846 102.4-102.4s-45.846-102.4-102.4-102.4v0z" />
<glyph unicode="&#xe9da;" glyph-name="refresh" d="M512 819.2v-102.4c-0.136 0-0.297 0-0.458 0-141.385 0-256-114.615-256-256 0-70.806 28.746-134.899 75.205-181.243l0.005-0.005-72.192-72.192c-64.865 64.859-104.986 154.464-104.986 253.44 0 197.939 160.461 358.4 358.4 358.4 0.009 0 0.018 0 0.028 0h-0.002zM765.44 714.24c64.865-64.859 104.986-154.464 104.986-253.44 0-197.939-160.461-358.4-358.4-358.4-0.009 0-0.018 0-0.028 0h0.002v102.4c0.136 0 0.297 0 0.458 0 141.385 0 256 114.615 256 256 0 70.806-28.746 134.899-75.205 181.243l-0.005 0.005 72.192 72.192zM512-51.2l-204.8 204.8 204.8 204.8v-409.6zM512 563.2v409.6l204.8-204.8-204.8-204.8z" />
<glyph unicode="&#xe9db;" glyph-name="reload" d="M750.592 171.008c-74.139-74.219-176.604-120.13-289.792-120.13-226.216 0-409.6 183.384-409.6 409.6s183.384 409.6 409.6 409.6c226.103 0 409.417-183.201 409.6-409.261v-0.017h-102.4c0 0.080 0 0.175 0 0.27 0 169.662-137.538 307.2-307.2 307.2s-307.2-137.538-307.2-307.2c0-169.662 137.538-307.2 307.2-307.2 84.764 0 161.509 34.33 217.091 89.845l-0.003-0.003 72.704-72.704zM614.4 460.8h409.6l-204.8-204.8-204.8 204.8z" />
<glyph unicode="&#xe9dc;" glyph-name="reply" d="M768 102.4v153.088c0 0.152 0.001 0.332 0.001 0.512 0 113.108-91.692 204.8-204.8 204.8 0 0-0.001 0-0.001 0h-153.6v-256l-307.2 307.2 307.2 307.2v-256h153.6c169.662 0 307.2-137.538 307.2-307.2v0-153.6h-102.4z" />
<glyph unicode="&#xe9dd;" glyph-name="reply-all" d="M921.6 102.4v153.088c0 0.152 0.001 0.332 0.001 0.512 0 113.108-91.692 204.8-204.8 204.8 0 0-0.001 0-0.001 0h-153.6v-256l-307.2 307.2 307.2 307.2v-256h153.6c169.662 0 307.2-137.538 307.2-307.2v0-153.6h-102.4zM307.2 665.6v153.6l-307.2-307.2 307.2-307.2v153.6l-153.6 153.6 153.6 153.6z" />
<glyph unicode="&#xe9de;" glyph-name="repost" d="M256 768c-56.554 0-102.4-45.846-102.4-102.4v0-307.2h-153.6l204.8-204.8 204.8 204.8h-153.6v307.2h358.4l102.4 102.4h-460.8zM768 563.2h-153.6l204.8 204.8 204.8-204.8h-153.6v-307.2c0-56.554-45.846-102.4-102.4-102.4v0h-460.8l102.4 102.4h358.4v307.2z" />
<glyph unicode="&#xe9df;" glyph-name="save-disk" d="M0 870.4c0 56.32 46.080 102.4 102.4 102.4h716.8l204.8-204.8v-716.8c0-56.554-45.846-102.4-102.4-102.4v0h-819.2c-56.554 0-102.4 45.846-102.4 102.4v0 819.2zM256 870.4v-307.2h512v307.2h-512zM563.2 819.2h153.6v-204.8h-153.6v204.8z" />
<glyph unicode="&#xe9e0;" glyph-name="screen-full" d="M143.36 163.84l-143.36 143.36v-358.4h358.4l-143.36 143.36 222.208 221.184-72.704 72.704-221.184-222.208zM880.64 757.76l143.36-143.36v358.4h-358.4l143.36-143.36-222.208-221.184 72.704-72.704 221.184 222.208zM808.96 92.16l-143.36-143.36h358.4v358.4l-143.36-143.36-221.184 222.208-72.704-72.704 221.696-221.696zM215.040 829.44l143.36 143.36h-358.4v-358.4l143.36 143.36 221.184-222.208 72.704 72.704-222.208 221.184z" />
<glyph unicode="&#xe9e1;" glyph-name="search" d="M660.48 239.616c-68.622-53.712-156.164-86.131-251.277-86.131-226.216 0-409.6 183.384-409.6 409.6s183.384 409.6 409.6 409.6c226.216 0 409.6-183.384 409.6-409.6 0-95.113-32.419-182.654-86.809-252.177l0.678 0.9 273.92-272.896-72.704-72.704-272.896 273.408zM409.6 256c169.662 0 307.2 137.538 307.2 307.2s-137.538 307.2-307.2 307.2v0c-169.662 0-307.2-137.538-307.2-307.2s137.538-307.2 307.2-307.2v0z" />
<glyph unicode="&#xe9e2;" glyph-name="send" d="M0 972.8l1024-512-1024-512v1024zM0 563.2v-204.8l512 102.4-512 102.4z" />
</font>
</defs>
</svg>
